<?xml version="1.0" standalone="no"?>
<!DOCTYPE svg PUBLIC "-//W3C//DTD SVG 1.1//EN" "http://www.w3.org/Graphics/SVG/1.1/DTD/svg11.dtd" >
<svg xmlns="http://www.w3.org/2000/svg" xmlns:xlink="http://www.w3.org/1999/xlink" version="1.1">
<metadata>
Created by FontForge 20201107 at Wed Jul 17 16:26:11 2024
 By 
Copyright (c) 1989, 1995, 2002 Adobe Systems Incorporated.  All Rights Reserved. (c) 1981, 1995, 2002 Heidelberger Druckmaschinen AG. All rights reserved.
</metadata>
<defs>
<font id="AvenirLTStd-HeavyOblique" horiz-adv-x="532" >
  <font-face 
    font-family="Avenir LT Std 55 Roman"
    font-weight="700"
    font-style="oblique"
    font-stretch="normal"
    units-per-em="2048"
    panose-1="2 11 7 3 2 2 3 2 2 4"
    ascent="1638"
    descent="-410"
    x-height="983"
    cap-height="1450"
    bbox="-338 -565 2427.25 1923"
    underline-thickness="102"
    underline-position="-204"
    slope="-8"
    unicode-range="U+0020-FB02"
  />
<missing-glyph horiz-adv-x="1224" 
d="M201 0v1434h1024v-1434h-1024zM713 809l348 522h-696zM774 717l348 -522v1044zM365 102h696l-348 523zM303 1239v-1044l348 522z" />
    <glyph glyph-name="fi" unicode="fi" horiz-adv-x="1214" 
d="M227 0l109 774h-203l29 209h203l20 139q16 110 41.5 186.5t73 139.5t126 94t189.5 31q85 0 154 -14l-45 -209q-61 14 -101 14q-49 0 -84.5 -15.5t-55.5 -46t-30 -63.5t-16 -78l-27 -178h228l-29 -209h-227l-109 -774h-246zM860 0l137 983h246l-137 -983h-246zM1012 1317
q9 60 59.5 103.5t116.5 43.5q68 0 108 -42t31 -105q-7 -63 -59.5 -105.5t-120.5 -42.5q-66 0 -104.5 44t-30.5 104z" />
    <glyph glyph-name="fl" unicode="fl" horiz-adv-x="1214" 
d="M227 0l109 774h-203l29 209h203l20 139q16 110 41.5 186.5t73 139.5t126 94t189.5 31q85 0 154 -14l-45 -209q-61 14 -101 14q-49 0 -84.5 -15.5t-55.5 -46t-30 -63.5t-16 -78l-27 -178h228l-29 -209h-227l-109 -774h-246zM860 0l217 1548h246l-217 -1548h-246z" />
    <glyph glyph-name=".notdef" horiz-adv-x="1224" 
d="M201 0v1434h1024v-1434h-1024zM713 809l348 522h-696zM774 717l348 -522v1044zM365 102h696l-348 523zM303 1239v-1044l348 522z" />
    <glyph glyph-name=".null" horiz-adv-x="0" 
 />
    <glyph glyph-name="nonmarkingreturn" horiz-adv-x="682" 
 />
    <glyph glyph-name="space" unicode=" " horiz-adv-x="606" 
 />
    <glyph glyph-name="exclam" unicode="!" horiz-adv-x="606" 
d="M631 1450l-142 -995h-245l141 995h246zM160 143q9 66 63.5 113t122.5 47q67 0 108.5 -45.5t32.5 -110.5q-9 -66 -63.5 -112.5t-122.5 -46.5q-66 0 -108 45t-33 110z" />
    <glyph glyph-name="quotedbl" unicode="&#x22;" horiz-adv-x="1062" 
d="M373 909l78 541h208l-77 -541h-209zM735 909l78 541h209l-78 -541h-209z" />
    <glyph glyph-name="numbersign" unicode="#" horiz-adv-x="1212" 
d="M219 0l121 428h-184l24 172h207l72 250h-185l25 172h207l123 428h180l-123 -428h211l123 428h178l-123 -428h185l-25 -172h-209l-70 -250h185l-25 -172h-205l-123 -428h-178l121 428h-213l-121 -428h-178zM848 850h-211l-70 -250h211z" />
    <glyph glyph-name="dollar" unicode="$" horiz-adv-x="1212" 
d="M877 1610l-19 -135h19q107 0 210.5 -37.5t169.5 -104.5l-196 -190q-40 51 -102 80.5t-132 29.5l-57 -409l8 -2q81 -22 132 -39.5t114.5 -52t96.5 -74.5t51.5 -104.5t7.5 -145.5q-27 -194 -175.5 -311t-357.5 -138l-20 -147h-111l21 145q-300 -3 -451 183l213 190
q38 -66 109.5 -104.5t158.5 -46.5l62 432l-11 2q-74 21 -127 42t-108 55.5t-86 76.5t-46.5 105t-4.5 141q17 117 94 211.5t183.5 146.5t224.5 64l18 137h111zM664 874l53 375q-79 -13 -140 -62.5t-71 -123.5q-8 -52 11.5 -88t41.5 -49.5t75 -37.5q20 -9 30 -14zM735 596
l-57 -399q96 19 163.5 72.5t78.5 138.5q5 41 -5.5 72t-45 53.5t-54 31.5t-70.5 27q-7 3 -10 4z" />
    <glyph glyph-name="percent" unicode="%" horiz-adv-x="1857" 
d="M1083 356q23 158 151 269.5t286 111.5t253 -111.5t72 -269.5q-22 -158 -149 -269.5t-285 -111.5t-254 111.5t-74 269.5zM1649 356q11 77 -35.5 131t-122.5 54q-77 0 -139 -54.5t-72 -130.5t36.5 -130t123.5 -54q76 0 137 53.5t72 130.5zM215 1094q15 104 78 191.5
t157.5 138.5t198.5 51q159 0 255 -111.5t73 -269.5q-22 -158 -149 -269.5t-285 -111.5t-254 111.5t-74 269.5zM780 1094q11 77 -35 130.5t-122 53.5q-77 0 -139 -54t-72 -130q-11 -77 35 -131t122 -54q77 0 139 54.5t72 130.5zM422 12l1063 1504l160 -78l-1063 -1504z" />
    <glyph glyph-name="ampersand" unicode="&#x26;" horiz-adv-x="1517" 
d="M1573 762l-350 -420l266 -342h-318l-131 166q-103 -104 -211.5 -153.5t-244.5 -49.5q-97 0 -180.5 28.5t-145 80.5t-90 134.5t-14.5 182.5q19 140 121.5 247t248.5 161q-71 93 -101.5 164.5t-16.5 168.5q24 170 156.5 263.5t307.5 93.5q83 0 153 -21t122 -61.5t75.5 -108
t10.5 -153.5q-9 -64 -41 -122.5t-81 -105t-102.5 -82t-115.5 -65.5l196 -252l197 246h289zM844 1266q-72 0 -129 -41.5t-66 -104.5q-7 -51 23.5 -102.5t83.5 -108.5q41 21 72.5 39.5t68.5 47t59.5 62.5t28.5 72q7 58 -33.5 97t-107.5 39zM909 328l-250 323
q-50 -27 -80 -46.5t-67.5 -50.5t-58.5 -68.5t-27 -82.5q-13 -94 46 -156.5t153 -62.5q76 0 140.5 37.5t143.5 106.5z" />
    <glyph glyph-name="quotesingle" unicode="'" horiz-adv-x="606" 
d="M326 909l77 541h209l-77 -541h-209z" />
    <glyph glyph-name="parenleft" unicode="(" horiz-adv-x="606" 
d="M608 1499l160 -106l-4 -9q-149 -171 -246.5 -377.5t-128.5 -416.5q-29 -210 11 -417.5t141 -379.5l-189 -112q-114 197 -159.5 429.5t-12.5 479.5q35 245 146.5 478.5t281.5 430.5z" />
    <glyph glyph-name="parenright" unicode=")" horiz-adv-x="606" 
d="M164 -319l-160 106l4 8q149 171 246.5 378.5t126.5 416.5q30 209 -10 415t-140 379l189 115q115 -197 160 -430t10 -479q-33 -244 -144 -477.5t-282 -431.5z" />
    <glyph glyph-name="asterisk" unicode="*" horiz-adv-x="948" 
d="M766 1450l-41 -291l289 90l28 -164l-290 -90l143 -239l-156 -103l-143 242l-205 -236l-123 105l209 231l-266 97l76 163l266 -96l41 291h172z" />
    <glyph glyph-name="plus" unicode="+" horiz-adv-x="1363" 
d="M229 725h451l63 451h209l-63 -451h450l-30 -209h-451l-63 -450h-209l63 450h-450z" />
    <glyph glyph-name="comma" unicode="," horiz-adv-x="606" 
d="M41 -258l219 541h250l-250 -541h-219z" />
    <glyph glyph-name="hyphen" unicode="-" horiz-adv-x="645" 
d="M662 608l-31 -209h-506l31 209h506z" />
    <glyph glyph-name="period" unicode="." horiz-adv-x="606" 
d="M160 143q9 66 63.5 113t122.5 47q67 0 108.5 -45.5t32.5 -110.5q-9 -66 -63.5 -112.5t-122.5 -46.5q-66 0 -108 45t-33 110z" />
    <glyph glyph-name="slash" unicode="/" horiz-adv-x="796" 
d="M999 1487l-862 -1585l-162 61l865 1589z" />
    <glyph glyph-name="zero" unicode="0" horiz-adv-x="1212" 
d="M184 725q20 142 57 257.5t81 191.5t99.5 133.5t106 88.5t107.5 50t97 24t81 5q31 0 60.5 -3t68.5 -13t73.5 -26t71 -45t64.5 -67.5t51.5 -96t35 -128t11.5 -165.5t-16 -206q-20 -142 -57 -257.5t-81 -191.5t-100 -133.5t-106.5 -88.5t-108 -50t-97.5 -24t-81 -5
q-31 0 -60.5 3t-68.5 13t-73 26t-70.5 45t-64.5 67.5t-51 96t-35 128t-11.5 165.5t16.5 206zM430 725q-6 -43 -10 -85.5t-4 -95t5.5 -98.5t21 -90.5t39.5 -76t63 -51t90 -19.5q59 0 109.5 25t85.5 69.5t62.5 95t46 113.5t29.5 111.5t19 101.5q6 44 9.5 86t3.5 95t-6 98
t-21.5 90t-39.5 76.5t-63 51t-90 19.5q-59 0 -109.5 -25t-85.5 -69.5t-62.5 -95.5t-45.5 -113t-29 -111.5t-18 -101.5z" />
    <glyph glyph-name="one" unicode="1" horiz-adv-x="1212" 
d="M549 0l164 1167l-307 -252l-121 170l491 365h223l-204 -1450h-246z" />
    <glyph glyph-name="two" unicode="2" horiz-adv-x="1212" 
d="M121 0l37 260l639 545q38 32 61 53.5t53.5 55t47.5 67.5t22 70q12 86 -42 138t-142 52q-90 0 -157.5 -53.5t-92.5 -143.5l-256 21q45 196 190.5 303t347.5 107q99 0 179.5 -25.5t138 -75.5t83 -129.5t11.5 -181.5q-19 -127 -90 -226.5t-193 -199.5l-507 -416h671
l-30 -221h-971z" />
    <glyph glyph-name="three" unicode="3" horiz-adv-x="1212" 
d="M545 645l30 221h64q61 0 106 6.5t91.5 25.5t75.5 60.5t38 104.5q12 83 -38.5 136.5t-141.5 53.5q-74 0 -139 -42.5t-101 -116.5l-249 69q68 155 203.5 233.5t303.5 78.5q95 0 175 -25t138 -72.5t85 -122.5t14 -168q-18 -119 -97.5 -208.5t-197.5 -118.5v-4
q131 -20 192 -117.5t42 -235.5q-14 -100 -66 -182.5t-127.5 -135.5t-167.5 -81.5t-190 -28.5q-189 0 -308.5 83t-140.5 257l271 70q22 -188 208 -188q101 0 182.5 64t94.5 163q32 221 -291 221h-59z" />
    <glyph glyph-name="four" unicode="4" horiz-adv-x="1212" 
d="M686 0l41 295h-616l34 244l713 911h279l-133 -934h210l-30 -221h-211l-41 -295h-246zM758 516l84 586h-4l-447 -586h367z" />
    <glyph glyph-name="five" unicode="5" horiz-adv-x="1212" 
d="M1239 1450l-33 -221h-583l-45 -289q58 18 157 18q215 0 331 -131.5t85 -349.5q-22 -152 -107.5 -267t-212.5 -175t-276 -60q-175 0 -285 84t-137 248l268 70q14 -80 67.5 -124t145.5 -44q110 0 191.5 71t95.5 177q20 143 -65.5 211.5t-233.5 68.5q-165 0 -313 -69
l125 782h825z" />
    <glyph glyph-name="six" unicode="6" horiz-adv-x="1212" 
d="M801 1450h299l-424 -537l2 -4q52 25 139 25q125 0 217 -63t132 -169t22 -231q-20 -148 -103 -261.5t-209 -174t-274 -60.5q-230 0 -354 133.5t-92 360.5q16 106 63 198.5t127 198.5zM414 473q-15 -109 51.5 -186.5t175.5 -77.5t197.5 77.5t103.5 186.5t-50.5 186.5
t-174.5 77.5t-198.5 -77.5t-104.5 -186.5z" />
    <glyph glyph-name="seven" unicode="7" horiz-adv-x="1212" 
d="M256 1217l35 233h985l-33 -225l-751 -1225h-289l762 1217h-709z" />
    <glyph glyph-name="eight" unicode="8" horiz-adv-x="1212" 
d="M813 1475q192 0 304 -102t87 -279q-15 -119 -84 -207t-180 -119l-2 -4q105 -22 169 -122t46 -230q-19 -139 -100 -239.5t-197 -149t-254 -48.5q-212 0 -334 115t-94 322q18 129 110.5 229t202.5 123l2 4q-101 31 -145.5 119t-28.5 207q25 177 166 279t332 102zM784 1266
q-91 0 -153 -56t-74 -141q-12 -88 34.5 -145.5t135.5 -57.5q82 0 148.5 58.5t78.5 144.5q12 82 -37 139.5t-133 57.5zM700 670q-102 0 -182.5 -65t-93.5 -163q-13 -103 46 -168t165 -65t184.5 65.5t91.5 167.5q13 98 -48.5 163t-162.5 65z" />
    <glyph glyph-name="nine" unicode="9" horiz-adv-x="1212" 
d="M616 0h-299l424 537l-4 4q-48 -25 -139 -25q-125 0 -216.5 63t-131.5 168.5t-23 231.5q32 223 196 359.5t390 136.5q230 0 354.5 -133.5t92.5 -360.5q-14 -106 -61 -198t-130 -199zM1001 977q15 109 -51.5 186.5t-175.5 77.5t-197.5 -77.5t-103.5 -186.5t51.5 -186.5
t175.5 -77.5t197.5 77.5t103.5 186.5z" />
    <glyph glyph-name="colon" unicode=":" horiz-adv-x="606" 
d="M160 143q9 66 63.5 113t122.5 47q67 0 108.5 -45.5t32.5 -110.5q-9 -66 -63.5 -112.5t-122.5 -46.5q-66 0 -108 45t-33 110zM256 838q11 66 65 112.5t121 46.5t110 -45t34 -110q-9 -66 -64 -113t-123 -47q-66 0 -109 45.5t-34 110.5z" />
    <glyph glyph-name="semicolon" unicode=";" horiz-adv-x="606" 
d="M41 -258l219 541h250l-250 -541h-219zM256 838q11 66 65 112.5t121 46.5t110 -45t34 -110q-9 -66 -64 -113t-123 -47q-66 0 -109 45.5t-34 110.5z" />
    <glyph glyph-name="less" unicode="&#x3c;" horiz-adv-x="1363" 
d="M1212 86l-970 461l20 147l1100 461l-31 -225l-735 -309l647 -310z" />
    <glyph glyph-name="equal" unicode="=" horiz-adv-x="1363" 
d="M254 909h1110l-29 -209h-1110zM203 541h1110l-29 -209h-1110z" />
    <glyph glyph-name="greater" unicode="&#x3e;" horiz-adv-x="1363" 
d="M326 1155l972 -461l-20 -147l-1102 -461l31 225l737 310l-649 309z" />
    <glyph glyph-name="question" unicode="?" horiz-adv-x="1062" 
d="M735 428h-246l17 113q9 61 26.5 100t40 64t78.5 75l180 160q57 51 70 133q10 79 -35 129.5t-125 50.5q-84 0 -148 -57t-85 -143l-258 20q49 193 193 303.5t341 110.5q123 0 213.5 -45.5t135.5 -137t28 -217.5q-7 -49 -25 -92.5t-37.5 -74t-56 -68.5t-60.5 -59.5
t-73 -61.5q-16 -13 -24 -20q-37 -31 -47.5 -40t-32.5 -31.5t-29 -37.5t-15.5 -39.5t-12.5 -56.5zM410 143q9 66 63.5 113t122.5 47q67 0 108.5 -45.5t32.5 -110.5q-9 -66 -63.5 -112.5t-122.5 -46.5q-66 0 -108 45t-33 110z" />
    <glyph glyph-name="at" unicode="@" horiz-adv-x="1638" 
d="M952 934q-100 0 -169 -71.5t-83 -176.5q-26 -188 144 -188q56 0 99.5 22t70 59.5t41.5 78.5t22 87q12 85 -19.5 137t-105.5 52zM1303 272h225q-129 -149 -306.5 -229t-367.5 -80q-162 0 -299.5 57t-231 156t-136 241.5t-19.5 305.5q22 160 104 302.5t201 243.5
t271.5 159.5t312.5 58.5q109 0 210 -28t185.5 -85t143.5 -136t84.5 -189t7.5 -236q-13 -90 -42.5 -165t-66.5 -125.5t-84.5 -89.5t-92 -61t-92.5 -36t-82.5 -18.5t-64.5 -4.5q-80 0 -116 33t-31 78h-4q-123 -111 -277 -111q-132 0 -201 96t-47 248q13 90 54 173t101.5 147.5
t144.5 102.5t176 38q83 0 132 -27.5t72 -89.5h4l29 93h193l-133 -404q-4 -12 -12.5 -36t-14 -43.5t-8.5 -37.5q-5 -39 4.5 -57t40.5 -18q71 0 134 78t85 227q34 239 -95 369.5t-370 130.5q-253 0 -432 -163t-215 -417q-19 -132 11 -240.5t100 -182t175 -113.5t234 -40
q229 0 406 125z" />
    <glyph glyph-name="A" unicode="A" horiz-adv-x="1478" 
d="M0 0l836 1450h223l420 -1450h-295l-88 332h-629l-178 -332h-289zM586 553h450l-141 590z" />
    <glyph glyph-name="B" unicode="B" horiz-adv-x="1327" 
d="M162 0l205 1450h565q86 0 159.5 -20.5t132 -62.5t86 -114.5t13.5 -167.5q-17 -120 -95.5 -201t-199.5 -116l-2 -4q135 -15 209.5 -113t54.5 -237q-15 -113 -73 -196.5t-144.5 -129.5t-183 -67t-205.5 -21h-522zM592 1229l-51 -369h235q126 0 199.5 49t85.5 133
q12 95 -49.5 141t-206.5 46h-213zM510 639l-59 -418h237q318 0 348 213q15 112 -51.5 158.5t-226.5 46.5h-248z" />
    <glyph glyph-name="C" unicode="C" horiz-adv-x="1402" 
d="M1534 1257l-221 -147q-63 80 -133 111.5t-152 31.5q-110 0 -209.5 -40.5t-173.5 -110t-123.5 -164.5t-64.5 -203q-21 -154 23 -276t148 -192t251 -70q187 0 352 176l190 -152q-113 -131 -262 -194.5t-315 -63.5q-221 0 -382 94t-235 266.5t-43 395.5q32 229 155.5 404.5
t310.5 269.5t409 94q310 0 475 -230z" />
    <glyph glyph-name="D" unicode="D" horiz-adv-x="1554" 
d="M162 0l205 1450h571q116 0 219 -27.5t188.5 -86.5t143 -143t81 -204t3.5 -264q-20 -143 -84 -265t-152.5 -205t-197.5 -142t-219.5 -86t-217.5 -27h-540zM453 233h192q125 0 233 28t198 85.5t149.5 154t77.5 224.5q14 103 -1 186t-55 139.5t-103.5 94.5t-143 55
t-175.5 17h-235z" />
    <glyph glyph-name="E" unicode="E" horiz-adv-x="1251" 
d="M162 0l205 1450h960l-35 -233h-702l-49 -357h665l-32 -233h-666l-55 -394h739l-33 -233h-997z" />
    <glyph glyph-name="F" unicode="F" horiz-adv-x="1175" 
d="M162 0l205 1450h936l-35 -233h-678l-53 -381h639l-33 -234h-639l-84 -602h-258z" />
    <glyph glyph-name="G" unicode="G" horiz-adv-x="1593" 
d="M1569 848l-105 -742q-286 -143 -620 -143q-221 0 -382 94t-235 266.5t-43 395.5q32 229 155.5 404.5t310.5 269.5t409 94q368 0 547 -182l-220 -193q-58 67 -153 104t-205 37t-209.5 -40.5t-173.5 -110t-123.5 -164.5t-64.5 -203q-21 -154 23 -276t148 -192t251 -70
q208 0 352 75l47 342h-297l33 234h555z" />
    <glyph glyph-name="H" unicode="H" horiz-adv-x="1517" 
d="M162 0l205 1450h258l-82 -578h678l82 578h258l-205 -1450h-258l90 639h-678l-90 -639h-258z" />
    <glyph glyph-name="I" unicode="I" horiz-adv-x="569" 
d="M156 0l204 1450h258l-204 -1450h-258z" />
    <glyph glyph-name="J" unicode="J" horiz-adv-x="1024" 
d="M1077 1450l-147 -1049q-13 -88 -52 -166t-100.5 -139.5t-151.5 -97t-196 -35.5q-174 0 -271.5 82.5t-107.5 251.5l250 57q3 -71 43 -114t107 -43q105 0 158 70.5t73 209.5l137 973h258z" />
    <glyph glyph-name="K" unicode="K" horiz-adv-x="1402" 
d="M162 0l205 1450h258l-88 -614h12l688 614h348l-772 -670l612 -780h-362l-528 713h-15l-100 -713h-258z" />
    <glyph glyph-name="L" unicode="L" horiz-adv-x="1062" 
d="M162 0l205 1450h258l-172 -1217h616l-33 -233h-874z" />
    <glyph glyph-name="M" unicode="M" horiz-adv-x="1896" 
d="M168 0l205 1450h393l244 -1016l534 1016h389l-204 -1450h-246l170 1204h-4l-611 -1204h-180l-270 1204h-4l-170 -1204h-246z" />
    <glyph glyph-name="N" unicode="N" horiz-adv-x="1630" 
d="M162 0l205 1450h342l551 -1077h4l151 1077h258l-205 -1450h-327l-561 1112h-5l-155 -1112h-258z" />
    <glyph glyph-name="O" unicode="O" horiz-adv-x="1705" 
d="M184 719q32 229 155.5 404.5t310.5 269.5t409 94q169 3 305 -50.5t223.5 -152t124 -242t12.5 -315.5q-31 -223 -153.5 -396t-311.5 -268.5t-415 -99.5q-221 0 -382 94t-235 266.5t-43 395.5zM457 735q-21 -154 23 -276t148 -192t251 -70q223 0 382.5 152t192.5 386
q20 144 -24.5 262t-149.5 187t-252 69q-110 0 -209.5 -40.5t-173.5 -110t-123.5 -164.5t-64.5 -203z" />
    <glyph glyph-name="P" unicode="P" horiz-adv-x="1251" 
d="M162 0l205 1450h487q88 0 162 -12.5t139 -43t107.5 -77.5t61 -120t5.5 -167q-11 -77 -36 -139t-59.5 -106t-82 -77.5t-98 -53.5t-113.5 -32.5t-122.5 -17t-129.5 -4.5h-184l-84 -600h-258zM535 821h155q39 0 66 1t66 5.5t66.5 12t58.5 23t51.5 36.5t36.5 53.5t22 73.5
q8 51 -6 89t-40.5 59.5t-68.5 34t-80.5 16.5t-85.5 4h-184z" />
    <glyph glyph-name="Q" unicode="Q" horiz-adv-x="1744" 
d="M1747 209l-29 -209h-844q-169 0 -306.5 52.5t-229.5 148.5t-132 239t-16 316q17 125 72.5 239t139 202.5t187 154.5t223.5 100.5t243 34.5q154 0 285.5 -55t221.5 -150.5t132 -232.5t20 -293q-12 -87 -42 -165t-67 -134.5t-85.5 -105t-93 -80.5t-93.5 -58l-2 -4h416z
M1016 1253q-210 0 -368 -143t-189 -360q-31 -223 87.5 -370t330.5 -147q215 0 374.5 147t190.5 370q31 218 -88.5 360.5t-337.5 142.5z" />
    <glyph glyph-name="R" unicode="R" horiz-adv-x="1290" 
d="M162 0l205 1450h503q88 0 162 -11.5t140.5 -41t110 -75.5t63 -119.5t6.5 -168.5q-22 -159 -125.5 -264.5t-265.5 -128.5l294 -641h-311l-250 614h-188l-86 -614h-258zM537 836h200q43 0 74.5 2t72.5 8t70 19.5t57 35t45.5 56t24.5 79.5q7 50 -6 86t-38 56.5t-64.5 32
t-75.5 15t-82 3.5h-223z" />
    <glyph glyph-name="S" unicode="S" horiz-adv-x="1175" 
d="M1249 1337l-217 -198q-33 56 -96 85t-141 29q-99 0 -175.5 -46.5t-89.5 -139.5q-7 -46 12 -81t55.5 -58t85.5 -41.5t103.5 -37t109 -39.5t101.5 -53.5t80.5 -75t48 -107.5t2.5 -148q-16 -113 -71 -203t-136.5 -146t-180.5 -85t-208 -29q-143 0 -259.5 48t-186.5 149
l221 188q36 -71 106.5 -111t157.5 -40q99 0 184.5 52.5t98.5 145.5q7 50 -11 88.5t-54.5 62.5t-85.5 44t-103.5 38t-108.5 39t-101.5 53t-81 74t-48 107t-2.5 148q15 108 72.5 194t141 138t181.5 79t201 27q256 0 395 -150z" />
    <glyph glyph-name="T" unicode="T" horiz-adv-x="1175" 
d="M459 0l170 1217h-445l35 233h1147l-35 -233h-444l-170 -1217h-258z" />
    <glyph glyph-name="U" unicode="U" horiz-adv-x="1478" 
d="M1528 1450l-129 -918q-24 -171 -119.5 -301.5t-238 -199t-308.5 -68.5q-124 0 -225.5 40t-169 112.5t-96.5 180t-11 236.5l129 918h258l-129 -909q-7 -36 -3.5 -74.5t12 -75.5t30.5 -70t53 -58t79 -39.5t108 -14.5q88 0 159 31t114 82t67.5 106t32.5 113l129 909h258z
" />
    <glyph glyph-name="V" unicode="V" horiz-adv-x="1366" 
d="M563 0l-364 1450h297l239 -1096l563 1096h279l-791 -1450h-223z" />
    <glyph glyph-name="W" unicode="W" horiz-adv-x="2009" 
d="M428 0l-223 1450h282l125 -1044h4l474 1044h253l173 -1044h4l432 1044h262l-627 -1450h-246l-180 1104h-4l-491 -1104h-238z" />
    <glyph glyph-name="X" unicode="X" horiz-adv-x="1402" 
d="M0 0l623 758l-385 692h325l266 -537l414 537h313l-573 -692l420 -758h-328l-297 612l-467 -612h-311z" />
    <glyph glyph-name="Y" unicode="Y" horiz-adv-x="1290" 
d="M516 0l88 621l-428 829h324l274 -578l443 578h307l-662 -829l-88 -621h-258z" />
    <glyph glyph-name="Z" unicode="Z" horiz-adv-x="1251" 
d="M72 0l32 233l912 984h-762l35 233h1083l-35 -233l-917 -984h792l-32 -233h-1108z" />
    <glyph glyph-name="bracketleft" unicode="[" horiz-adv-x="569" 
d="M739 1499l-22 -160h-185l-210 -1499h184l-23 -159h-393l256 1818h393z" />
    <glyph glyph-name="backslash" unicode="\" horiz-adv-x="796" 
d="M215 1487l180 65l414 -1589l-178 -61z" />
    <glyph glyph-name="bracketright" unicode="]" horiz-adv-x="569" 
d="M-4 -319l22 159h185l211 1499h-185l23 160h393l-256 -1818h-393z" />
    <glyph glyph-name="asciicircum" unicode="^" horiz-adv-x="1363" 
d="M481 702h-241l563 748h168l350 -748h-242l-231 490z" />
    <glyph glyph-name="underscore" unicode="_" horiz-adv-x="1024" 
d="M987 -256h-1024l14 102h1024z" />
    <glyph glyph-name="grave" unicode="`" 
d="M365 1450l159 -295h-192l-246 295h279z" />
    <glyph glyph-name="a" unicode="a" horiz-adv-x="1099" 
d="M754 0l18 135h-6q-121 -160 -338 -160q-94 0 -169 32t-117.5 101t-28.5 162q9 66 38 119t68.5 88.5t96.5 61t110 39.5t121 22t118.5 10t112.5 2h62l4 27q12 88 -43 136t-156 48q-151 0 -278 -102l-111 129q178 158 440 158q146 0 234.5 -49t108.5 -118t26.5 -144.5
t-10.5 -127.5v-4l-80 -565h-221zM793 385l8 55h-51q-369 0 -390 -151q-8 -63 39 -96t115 -33q123 0 194 60t85 165z" />
    <glyph glyph-name="b" unicode="b" horiz-adv-x="1290" 
d="M139 0l217 1548h246l-96 -690h6q140 150 354 150q138 0 238 -68t143 -186t23 -262q-32 -224 -184.5 -370.5t-374.5 -146.5q-108 0 -191 43t-123 129h-4l-20 -147h-234zM1024 492q16 121 -51 207.5t-197 86.5t-222 -87t-108 -207q-18 -121 49 -208t197 -87t222 87t110 208
z" />
    <glyph glyph-name="c" unicode="c" horiz-adv-x="987" 
d="M1102 858l-195 -170q-81 98 -172 98q-130 0 -221.5 -86.5t-107.5 -207.5q-18 -121 48.5 -208t196.5 -87q122 0 205 92l139 -176q-78 -68 -187 -103t-187 -35q-111 0 -203.5 37.5t-155 104.5t-90.5 164.5t-12 210.5q21 151 109 269.5t218.5 182.5t278.5 64q99 0 189 -37.5
t147 -112.5z" />
    <glyph glyph-name="d" unicode="d" horiz-adv-x="1290" 
d="M918 0l20 147h-4q-64 -86 -159.5 -129t-203.5 -43q-148 0 -249.5 69t-142 185.5t-19.5 262.5q31 221 185 368.5t362 147.5q211 0 313 -150h6l96 690h246l-217 -1548h-233zM406 492q-18 -121 48.5 -208t196.5 -87t222 87t110 208q16 121 -51 207.5t-197 86.5t-221.5 -86.5
t-107.5 -207.5z" />
    <glyph glyph-name="e" unicode="e" horiz-adv-x="1175" 
d="M1143 406h-750q-3 -107 62 -170.5t170 -63.5q156 0 282 133l158 -133q-189 -197 -444 -197q-111 0 -203.5 37.5t-155 104.5t-90.5 164.5t-12 210.5q21 151 109 269.5t218.5 182.5t278.5 64q209 0 315 -141.5t70 -393.5zM418 590h504q14 108 -43 170.5t-172 62.5
q-107 0 -183 -63t-106 -170z" />
    <glyph glyph-name="f" unicode="f" horiz-adv-x="720" 
d="M227 0l109 774h-203l29 209h203l20 139q16 110 41.5 186.5t73 139.5t126 94t189.5 31q85 0 154 -14l-45 -209q-61 14 -101 14q-49 0 -84.5 -15.5t-55.5 -46t-30 -63.5t-16 -78l-27 -178h228l-29 -209h-227l-109 -774h-246z" />
    <glyph glyph-name="g" unicode="g" horiz-adv-x="1290" 
d="M1055 983h233l-125 -895q-38 -274 -198 -427t-439 -153q-303 0 -465 162l177 201q68 -71 143 -106t174 -35q87 0 152 23.5t106.5 68.5t65 103t34.5 134l11 72h-4q-62 -70 -154 -106.5t-188 -36.5q-144 0 -247 68t-146.5 182.5t-24.5 253.5q32 224 183.5 370t373.5 146
q107 0 190 -43t123 -129h4zM737 786q-129 0 -220.5 -81t-110.5 -211q-17 -118 53.5 -201.5t193.5 -83.5q134 0 225 81.5t109 207.5q19 128 -49 208t-201 80z" />
    <glyph glyph-name="h" unicode="h" horiz-adv-x="1175" 
d="M602 1548l-98 -702h4q43 68 124 115t187 47q77 0 135.5 -21t93.5 -57.5t56.5 -85.5t23.5 -105.5t-4 -117.5l-88 -621h-245l69 498q5 34 7 60t2 62.5t-8.5 63t-23.5 51.5t-45 38t-71 13q-114 0 -179.5 -70.5t-80.5 -178.5l-76 -537h-246l217 1548h246z" />
    <glyph glyph-name="i" unicode="i" 
d="M143 0l138 983h245l-137 -983h-246zM293 1317q9 60 59.5 103.5t116.5 43.5q68 0 108 -42t31 -105q-7 -63 -59.5 -105.5t-120.5 -42.5q-66 0 -104.5 44t-30.5 104z" />
    <glyph glyph-name="j" unicode="j" 
d="M281 983h245l-145 -1042q-9 -66 -22 -118t-33 -103t-49.5 -88t-69.5 -66t-95 -43.5t-124 -14.5q-73 0 -129 19l47 213q45 -10 76 -10q35 0 62 14t41.5 32.5t25.5 51t15 54t9 57.5zM293 1317q9 60 59.5 103.5t116.5 43.5q68 0 108 -42t31 -105q-7 -63 -59.5 -105.5
t-120.5 -42.5q-66 0 -104.5 44t-30.5 104z" />
    <glyph glyph-name="k" unicode="k" horiz-adv-x="1099" 
d="M139 0l217 1548h246l-137 -973l436 408h316l-484 -446l373 -537h-326l-321 502h-4l-70 -502h-246z" />
    <glyph glyph-name="l" unicode="l" 
d="M143 0l217 1548h246l-217 -1548h-246z" />
    <glyph glyph-name="m" unicode="m" horiz-adv-x="1781" 
d="M129 0l137 983h234l-21 -154h4q46 77 129 128t197 51q231 0 283 -183q129 183 348 183q95 0 161 -33t97 -90t41.5 -134t-4.5 -165l-82 -586h-246l78 557q34 229 -150 229q-73 0 -127.5 -38t-81.5 -93t-36 -123l-76 -532h-246l82 586q26 200 -139 200q-114 0 -179.5 -70.5
t-80.5 -178.5l-76 -537h-246z" />
    <glyph glyph-name="n" unicode="n" horiz-adv-x="1175" 
d="M139 0l137 983h234l-21 -158h5q47 81 128.5 132t196.5 51q77 0 135.5 -21t93.5 -57.5t56.5 -85.5t23.5 -105.5t-4 -117.5l-88 -621h-245l69 498q5 34 7 60t2 62.5t-8.5 63t-23.5 51.5t-45 38t-71 13q-114 0 -179.5 -70.5t-80.5 -178.5l-76 -537h-246z" />
    <glyph glyph-name="o" unicode="o" horiz-adv-x="1249" 
d="M160 492q21 151 109 269.5t218.5 182.5t278.5 64q111 0 203.5 -37.5t155.5 -104t91.5 -164t12.5 -210.5q-21 -151 -109.5 -270t-219.5 -183t-279 -64q-111 0 -203.5 37.5t-155 104.5t-90.5 164.5t-12 210.5zM406 492q-18 -121 48.5 -208t196.5 -87t222 87t110 208
q16 121 -51 207.5t-197 86.5t-221.5 -86.5t-107.5 -207.5z" />
    <glyph glyph-name="p" unicode="p" horiz-adv-x="1290" 
d="M74 -467l202 1450h234l-21 -147h5q64 86 159 129t203 43q148 0 250 -68.5t143.5 -185t20.5 -262.5q-31 -221 -186 -369t-363 -148q-213 0 -311 150h-7l-84 -592h-245zM1024 492q16 121 -51 207.5t-197 86.5t-222 -87t-108 -207q-18 -121 49 -208t197 -87t222 87t110 208z
" />
    <glyph glyph-name="q" unicode="q" horiz-adv-x="1290" 
d="M1288 983l-203 -1450h-245l84 592h-6q-145 -150 -357 -150q-208 0 -320 148t-81 369q32 224 183.5 370t373.5 146q107 0 190 -43t123 -129h4l21 147h233zM406 492q-18 -121 48.5 -208t196.5 -87t222 87t110 208q16 121 -51 207.5t-197 86.5t-221.5 -86.5t-107.5 -207.5z
" />
    <glyph glyph-name="r" unicode="r" horiz-adv-x="796" 
d="M139 0l137 983h246l-20 -156h4q53 85 136 133t179 48q35 0 86 -15l-33 -237q-70 18 -116 18q-65 0 -118.5 -21t-84.5 -50.5t-53.5 -67t-31 -63t-11.5 -46.5l-74 -526h-246z" />
    <glyph glyph-name="s" unicode="s" horiz-adv-x="909" 
d="M948 858l-184 -147q-59 100 -178 100q-56 0 -104 -26.5t-56 -77.5q-4 -31 15.5 -52.5t55.5 -32.5t82 -23t94 -22.5t93 -32.5t78 -51.5t48.5 -81t6.5 -120.5q-12 -84 -58 -147t-114 -99t-142.5 -53t-154.5 -17q-247 0 -360 152l184 154q45 -59 95 -90t122 -31q62 0 117 29
t63 83q6 41 -19.5 67t-70.5 39.5t-100 24.5t-109 29t-97 46t-65 82t-12 130q11 79 53.5 141.5t104 100t133.5 57t149 19.5q107 0 195 -36.5t135 -113.5z" />
    <glyph glyph-name="t" unicode="t" horiz-adv-x="796" 
d="M336 774h-203l29 209h203l41 285h245l-41 -285h271l-29 -209h-270l-60 -430q-11 -79 13.5 -119.5t101.5 -40.5q90 0 137 31l-29 -207q-73 -33 -200 -33t-193.5 39t-81 116.5t1.5 193.5z" />
    <glyph glyph-name="u" unicode="u" horiz-adv-x="1175" 
d="M1174 983l-138 -983h-233l22 158h-4q-49 -82 -130.5 -132.5t-196.5 -50.5q-77 0 -136 21t-93.5 57.5t-56 85.5t-23.5 105.5t5 117.5l86 621h246l-69 -498q-5 -36 -6.5 -60t-2 -62t8 -63.5t23.5 -51t45 -38.5t71 -13q114 0 180.5 71t81.5 178l74 537h246z" />
    <glyph glyph-name="v" unicode="v" horiz-adv-x="1062" 
d="M408 0l-265 983h269l166 -688h4l360 688h252l-524 -983h-262z" />
    <glyph glyph-name="w" unicode="w" horiz-adv-x="1630" 
d="M348 0l-205 983h267l116 -688h4l295 688h267l116 -688h4l301 688h248l-471 -983h-243l-140 672h-4l-301 -672h-254z" />
    <glyph glyph-name="x" unicode="x" horiz-adv-x="1099" 
d="M-2 0l469 528l-277 455h299l156 -295l254 295h281l-400 -455l322 -528h-299l-207 352l-307 -352h-291z" />
    <glyph glyph-name="y" unicode="y" horiz-adv-x="1062" 
d="M424 -8l-281 991h271l180 -682h4l340 682h256l-631 -1194q-39 -73 -76.5 -122t-86.5 -86.5t-111 -55t-142 -17.5q-92 0 -184 25l62 221q63 -24 120 -24q86 0 128.5 31.5t86.5 113.5z" />
    <glyph glyph-name="z" unicode="z" horiz-adv-x="987" 
d="M70 0l32 227l605 555v4h-502l26 197h799l-31 -223l-612 -563h557l-26 -197h-848z" />
    <glyph glyph-name="braceleft" unicode="{" horiz-adv-x="569" 
d="M70 500l26 180q25 0 55.5 6.5t65 21t60.5 44.5t32 71l56 406q10 65 46 119t82.5 85.5t92 48.5t80.5 17h186l-25 -172h-112q-41 0 -70.5 -13t-45 -37t-22 -45t-10.5 -48l-53 -385q-7 -46 -27.5 -82t-44.5 -57.5t-55 -37t-55 -21.5t-47 -9l-2 -4q26 -2 46.5 -6.5
t48.5 -18.5t45.5 -36t27 -63t2.5 -95l-52 -373q-5 -22 -3 -47t9.5 -46.5t33.5 -35.5t67 -14h113l-25 -172h-186q-35 0 -76 17t-79 48.5t-58.5 85.5t-10.5 119l54 391q5 37 -5.5 66t-30 45.5t-45 27.5t-47.5 15t-42 4z" />
    <glyph glyph-name="bar" unicode="|" horiz-adv-x="821" 
d="M422 1698h186v-2263h-186v2263z" />
    <glyph glyph-name="braceright" unicode="}" horiz-adv-x="569" 
d="M666 680l-27 -180q-25 0 -55.5 -6.5t-65.5 -21t-60.5 -45t-31.5 -71.5l-55 -405q-10 -65 -46 -119t-82.5 -85.5t-92 -48.5t-80.5 -17h-187l25 172h112q41 0 70.5 13t45 37t22 45t10.5 48l53 385q7 46 27.5 82t45 57.5t55.5 37t54.5 21.5t47.5 9l2 4q-26 2 -46.5 6.5
t-48.5 18.5t-45.5 36t-27 63t-2.5 95l51 373q5 22 3 47t-9.5 46.5t-33.5 35.5t-67 14h-112l24 172h187q35 0 76 -17t78.5 -48.5t58 -85.5t10.5 -119l-55 -391q-6 -45 11.5 -78.5t48 -49.5t59 -23t53.5 -7z" />
    <glyph glyph-name="asciitilde" unicode="~" horiz-adv-x="1363" 
d="M1194 788l49 -172q-29 -34 -46 -52.5t-47 -45.5t-55.5 -41.5t-60 -25.5t-71.5 -11q-87 0 -199 68q-119 72 -225 72q-63 0 -108.5 -38.5t-88.5 -101.5l-49 172q117 176 274 176q93 0 230 -65q11 -5 40.5 -19.5t44.5 -21.5t38 -16t40.5 -13t32.5 -4q24 0 49 10t41 19.5
t42 35t34 34.5t35 40z" />
    <glyph glyph-name="uni00A0" unicode="&#xa0;" horiz-adv-x="606" 
 />
    <glyph glyph-name="exclamdown" unicode="&#xa1;" horiz-adv-x="606" 
d="M117 -455l139 998h246l-140 -998h-245zM586 852q-9 -66 -63.5 -113t-121.5 -47t-109.5 45.5t-33.5 110.5q9 66 63.5 113t122.5 47q66 0 109 -45.5t33 -110.5z" />
    <glyph glyph-name="cent" unicode="&#xa2;" horiz-adv-x="1212" 
d="M887 1145l-21 -137q234 -7 328 -142l-180 -159q-70 86 -176 92l-86 -615q55 0 110.5 26t100.5 69l127 -162q-143 -135 -369 -142l-21 -147h-110l20 147q-135 12 -229 83.5t-132.5 184.5t-19.5 251q29 213 170.5 349.5t356.5 164.5l20 137h111zM641 184l86 613
q-113 -22 -180.5 -104.5t-83.5 -200.5q-16 -112 30 -196.5t148 -111.5z" />
    <glyph glyph-name="sterling" unicode="&#xa3;" horiz-adv-x="1212" 
d="M135 0l27 197h209l63 448h-209l25 172h209l28 205q9 63 34.5 125t71 122t105.5 105.5t145 73t183 27.5q113 0 211 -33.5t162 -98.5l-191 -178q-82 88 -204 88q-109 0 -184 -74.5t-89 -177.5l-26 -184h331l-24 -172h-332l-64 -448h519l-27 -197h-973z" />
    <glyph glyph-name="currency" unicode="&#xa4;" horiz-adv-x="1212" 
d="M223 195l-104 122l114 101q-81 136 -57 309q24 171 143 309l-86 101l140 120l88 -98q151 98 321 98q172 0 297 -98l113 98l106 -120l-114 -101q81 -137 57 -309q-24 -171 -143 -309l86 -101l-142 -122l-86 100q-149 -100 -323 -100q-171 0 -295 100zM410 727
q-20 -141 50 -226t206 -85t229 85t113 226t-49.5 225t-206.5 84q-136 0 -229 -84t-113 -225z" />
    <glyph glyph-name="yen" unicode="&#xa5;" horiz-adv-x="1212" 
d="M483 0l52 362h-349l23 160h348l14 99l-30 69h-310l23 160h221l-246 600h277l231 -602l391 602h265l-418 -600h221l-22 -160h-310l-47 -69l-14 -99h348l-23 -160h-348l-51 -362h-246z" />
    <glyph glyph-name="brokenbar" unicode="&#xa6;" horiz-adv-x="819" 
d="M422 1528h184v-793h-184v793zM422 395h184v-788h-184v788z" />
    <glyph glyph-name="section" unicode="&#xa7;" horiz-adv-x="1214" 
d="M1210 1280l-231 -121q-13 61 -61.5 96t-114.5 35q-68 0 -122.5 -34.5t-64.5 -100.5q-6 -46 22.5 -83t79 -64t112.5 -54t122.5 -60.5t109 -74t73.5 -104t14 -142.5q-10 -83 -69 -154.5t-142 -107.5q111 -91 92 -243q-13 -89 -63.5 -160.5t-123.5 -114.5t-155.5 -65.5
t-165.5 -22.5q-344 0 -420 252l234 106q10 -72 71 -110.5t142 -38.5q75 0 136 32.5t71 100.5q6 40 -15.5 73.5t-61.5 56t-91.5 47.5t-106.5 47t-105.5 54.5t-88.5 69t-56.5 93t-9.5 124.5q26 197 240 303q-124 84 -103 234q15 108 89 187t172 115t204 36q86 0 159.5 -18.5
t137 -67t90.5 -121.5zM612 489l185 -92q41 21 74.5 62.5t39.5 81.5q4 33 -3.5 59t-27 45t-39.5 33t-48 30q-15 9 -23 13l-170 86q-63 -28 -96.5 -58t-40.5 -85q-3 -24 0.5 -44.5t16.5 -38t24 -29t34.5 -25t35 -19.5t38.5 -19z" />
    <glyph glyph-name="dieresis" unicode="&#xa8;" 
d="M80 1303q9 60 60.5 103.5t117.5 43.5q68 0 107 -42t30 -105q-7 -63 -59.5 -105.5t-120.5 -42.5q-66 0 -104.5 44t-30.5 104zM502 1303q9 60 60.5 103.5t117.5 43.5q68 0 107 -42t30 -105q-7 -63 -59.5 -105.5t-120.5 -42.5q-66 0 -104.5 44t-30.5 104z" />
    <glyph glyph-name="copyright" unicode="&#xa9;" horiz-adv-x="1638" 
d="M1098 608h192q-41 -148 -155.5 -231.5t-253.5 -83.5q-126 0 -211.5 58.5t-119 157t-15.5 222.5q27 194 149.5 312t314.5 118q144 0 234.5 -76.5t91.5 -220.5h-192q-3 66 -42 95.5t-100 29.5q-113 0 -177.5 -68.5t-82.5 -185.5q-16 -119 31 -194.5t151 -75.5
q154 0 185 143zM160 725q22 155 102 296t196 243t265.5 162.5t304.5 60.5t287.5 -60.5t220 -162.5t128.5 -243t19 -296t-102.5 -296t-197 -243t-266 -162.5t-304.5 -60.5t-287 60.5t-219.5 162.5t-128 243t-18.5 296zM356 725q-23 -162 32.5 -298t174.5 -214t275 -78t297 78
t235 213.5t117 298.5q17 122 -12 231t-93.5 188t-162.5 125t-215 46q-156 0 -297 -78t-235 -214t-116 -298z" />
    <glyph glyph-name="ordfeminine" unicode="&#xaa;" horiz-adv-x="714" 
d="M623 883l10 80h-4q-36 -48 -97 -70.5t-126 -22.5q-31 0 -64.5 8t-69 26t-55 56t-12.5 91q6 40 25 72t44 53t62.5 36.5t71.5 23.5t79.5 12.5t77.5 5.5t74 1h35l2 17q6 34 -30.5 50.5t-100.5 16.5q-93 0 -180 -65l-72 108q118 93 295 93q146 0 203 -60t38 -186l-47 -346
h-159zM649 1133h-57q-204 0 -213 -76q-4 -29 23.5 -46.5t68.5 -17.5q159 0 176 127z" />
    <glyph glyph-name="guillemotleft" unicode="&#xab;" horiz-adv-x="1062" 
d="M647 862l-285 -354l187 -358l-170 -105l-246 463l375 459zM1104 862l-285 -354l187 -358l-170 -105l-246 463l375 459z" />
    <glyph glyph-name="logicalnot" unicode="&#xac;" horiz-adv-x="1363" 
d="M1071 301l55 399h-901l29 209h1110l-84 -608h-209z" />
    <glyph glyph-name="uni00AD" unicode="&#xad;" horiz-adv-x="645" 
d="M662 608l-31 -209h-506l31 209h506z" />
    <glyph glyph-name="registered" unicode="&#xae;" horiz-adv-x="1638" 
d="M573 334l113 799h256q75 0 133.5 -10t108.5 -35t73 -73.5t13 -117.5q-14 -101 -78.5 -168.5t-136.5 -77.5l159 -317h-215l-139 307h-47l-43 -307h-197zM858 973l-24 -172h96q20 0 33 1t34 5.5t34 13t25 25.5t15 41q3 23 -4 40t-18.5 25.5t-30 13.5t-32 6t-32.5 1h-96z
M160 725q22 155 102 296t196 243t265.5 162.5t304.5 60.5t287.5 -60.5t220 -162.5t128.5 -243t19 -296t-102.5 -296t-197 -243t-266 -162.5t-304.5 -60.5t-287 60.5t-219.5 162.5t-128 243t-18.5 296zM356 725q-23 -162 32.5 -298t174.5 -214t275 -78t297 78t235 213.5
t117 298.5q17 122 -12 231t-93.5 188t-162.5 125t-215 46q-156 0 -297 -78t-235 -214t-116 -298z" />
    <glyph glyph-name="macron" unicode="&#xaf;" 
d="M788 1378l-22 -159h-655l22 159h655z" />
    <glyph glyph-name="degree" unicode="&#xb0;" horiz-adv-x="819" 
d="M244 1147q19 135 128 231.5t244 96.5t218.5 -96.5t64.5 -231.5q-20 -135 -130 -231.5t-245 -96.5t-217.5 96.5t-62.5 231.5zM403 1147q-10 -69 32.5 -118.5t111.5 -49.5t125 49.5t67 118.5q9 69 -33.5 118.5t-111.5 49.5t-125.5 -49.5t-65.5 -118.5z" />
    <glyph glyph-name="plusminus" unicode="&#xb1;" horiz-adv-x="1363" 
d="M705 883l40 293h209l-41 -293h449l-31 -209h-448l-41 -293h-209l41 293h-453l31 209h453zM135 66l31 208h1110l-31 -208h-1110z" />
    <glyph glyph-name="twosuperior" unicode="&#xb2;" horiz-adv-x="788" 
d="M147 592l27 194l412 312q31 24 46 36t33 34.5t21 41.5q6 40 -23 60t-79 20q-54 0 -94.5 -31.5t-49.5 -78.5l-194 12q28 141 127.5 212t244.5 71q140 0 217.5 -68.5t59.5 -194.5q-18 -132 -150 -223l-317 -221l-2 -4h405l-22 -172h-662z" />
    <glyph glyph-name="threesuperior" unicode="&#xb3;" horiz-adv-x="788" 
d="M434 958l25 172h65q144 0 156 93q4 32 -22 49.5t-76 17.5q-47 0 -85 -24t-55 -66l-204 41q89 234 368 234q134 0 217.5 -61t67.5 -173q-9 -73 -59.5 -125t-129.5 -65v-4q81 -10 121 -68.5t29 -136.5q-18 -126 -124.5 -194t-252.5 -68q-133 0 -214 58t-91 183l217 45
q6 -102 113 -102q131 0 145 98q4 27 -4 46t-21 28.5t-39.5 14.5t-46 6t-53.5 1h-47z" />
    <glyph glyph-name="acute" unicode="&#xb4;" 
d="M332 1155l246 295h278l-332 -295h-192z" />
    <glyph glyph-name="mu" unicode="&#xb5;" horiz-adv-x="1175" 
d="M276 983h246l-69 -498q-5 -36 -6.5 -60t-2 -62t8 -63.5t23.5 -51t45 -38.5t71 -13q114 0 180.5 71t81.5 178l74 537h246l-138 -983h-233l22 158h-4q-49 -82 -130.5 -132.5t-196.5 -50.5q-62 0 -111 15l-64 -457h-245z" />
    <glyph glyph-name="paragraph" unicode="&#xb6;" horiz-adv-x="1228" 
d="M467 -258l135 950q-198 0 -305 105t-84 268q14 101 59 175.5t115.5 120t159.5 67.5t198 22h551l-241 -1708h-185l220 1561h-220l-219 -1561h-184z" />
    <glyph glyph-name="periodcentered" unicode="&#xb7;" horiz-adv-x="606" 
d="M223 596q9 66 64 113t123 47q67 0 108.5 -45.5t32.5 -110.5q-9 -66 -63.5 -113t-122.5 -47q-66 0 -108.5 45.5t-33.5 110.5z" />
    <glyph glyph-name="cedilla" unicode="&#xb8;" 
d="M449 0l-103 -123q43 0 72.5 -2.5t64 -12t53.5 -27t29.5 -50t3.5 -78.5q-7 -53 -39.5 -93.5t-79 -62.5t-95.5 -32.5t-99 -10.5q-113 0 -209 58l59 94q71 -41 162 -41q43 0 82.5 20t46.5 66q4 36 -26 55t-68 19q-31 0 -78 -15l-49 52l154 184h119z" />
    <glyph glyph-name="onesuperior" unicode="&#xb9;" horiz-adv-x="788" 
d="M451 592l90 649l-193 -154l-94 136l340 239h186l-121 -870h-208z" />
    <glyph glyph-name="ordmasculine" unicode="&#xba;" horiz-adv-x="813" 
d="M526 870q-145 0 -232.5 85t-66.5 216q20 133 129.5 218.5t253.5 85.5q147 0 235 -85.5t68 -218.5q-19 -132 -129.5 -216.5t-257.5 -84.5zM547 1018q81 0 134 47.5t60 105.5q8 60 -31 108t-120 48t-134 -48t-61 -108q-7 -59 32.5 -106t119.5 -47z" />
    <glyph glyph-name="guillemotright" unicode="&#xbb;" horiz-adv-x="1062" 
d="M557 150l287 354l-189 358l170 105l248 -463l-377 -459zM100 150l287 354l-188 358l170 105l247 -463l-376 -459z" />
    <glyph glyph-name="onequarter" unicode="&#xbc;" horiz-adv-x="1820" 
d="M1444 0l24 174h-405l22 160l461 536h230l-74 -524h108l-24 -172h-109l-24 -174h-209zM1493 346l39 275l-2 4l-234 -279h197zM428 592l90 649l-192 -154l-95 136l340 239h187l-121 -870h-209zM379 12l1063 1504l160 -78l-1063 -1504z" />
    <glyph glyph-name="onehalf" unicode="&#xbd;" horiz-adv-x="1820" 
d="M434 592l90 649l-192 -154l-94 136l340 239h186l-121 -870h-209zM1096 0l26 195l412 311q3 3 15.5 12.5t17 13.5t15 13t15.5 14t12.5 14t11.5 15.5t7 14.5t4 15q6 40 -23 60t-79 20q-54 0 -93.5 -31.5t-50.5 -78.5l-194 12q30 141 130 212t245 71q140 0 217 -68t59 -194
q-21 -135 -151 -224l-318 -221v-4h406l-25 -172h-659zM383 12l1063 1504l160 -78l-1063 -1504z" />
    <glyph glyph-name="threequarters" unicode="&#xbe;" horiz-adv-x="1820" 
d="M1509 322l52 364h-5l-292 -360v-4h245zM1458 0l25 174h-406l23 160l461 536h229l-74 -524h107l-25 -172h-106l-25 -174h-209zM426 958l25 172h65q144 0 156 93q4 32 -22.5 49.5t-76.5 17.5q-46 0 -84 -24t-55 -66l-205 41q89 234 369 234q134 0 217.5 -61t67.5 -173
q-9 -73 -59.5 -125t-129.5 -65v-4q81 -10 121 -68.5t29 -136.5q-18 -126 -124.5 -194t-252.5 -68q-133 0 -214 58t-91 183l217 45q6 -102 113 -102q131 0 145 98q4 27 -4 46t-21 28.5t-39.5 14.5t-46 6t-53.5 1h-47zM434 12l1063 1504l160 -78l-1063 -1504z" />
    <glyph glyph-name="questiondown" unicode="&#xbf;" horiz-adv-x="1062" 
d="M467 567h246l-17 -112q-11 -87 -37.5 -128.5t-105.5 -111.5l-180 -160q-60 -52 -70 -133q-12 -79 33 -129.5t125 -50.5q84 0 148 57.5t85 143.5l260 -21q-51 -194 -195 -304t-341 -110q-189 0 -295.5 106t-79.5 294q7 48 25 92.5t36 74t56.5 69t60 58.5t73.5 62
q17 14 25 21q73 62 91 84q36 45 47 120zM793 852q-9 -66 -63.5 -113t-121.5 -47t-109.5 45.5t-33.5 110.5q9 66 63.5 113t122.5 47q66 0 109 -45.5t33 -110.5z" />
    <glyph glyph-name="Agrave" unicode="&#xc0;" horiz-adv-x="1478" 
d="M0 0l836 1450h223l420 -1450h-295l-88 332h-629l-178 -332h-289zM586 553h450l-141 590zM891 1843l162 -295h-193l-248 295h279z" />
    <glyph glyph-name="Aacute" unicode="&#xc1;" horiz-adv-x="1478" 
d="M0 0l836 1450h223l420 -1450h-295l-88 332h-629l-178 -332h-289zM586 553h450l-141 590zM860 1548l244 295h278l-329 -295h-193z" />
    <glyph glyph-name="Acircumflex" unicode="&#xc2;" horiz-adv-x="1478" 
d="M0 0l836 1450h223l420 -1450h-295l-88 332h-629l-178 -332h-289zM586 553h450l-141 590zM1329 1548h-233l-115 185l-168 -185h-229l276 295h277z" />
    <glyph glyph-name="Atilde" unicode="&#xc3;" horiz-adv-x="1478" 
d="M0 0l836 1450h223l420 -1450h-295l-88 332h-629l-178 -332h-289zM586 553h450l-141 590zM717 1556h-135q17 54 38 96.5t52 82t76 61t100 21.5q61 0 158 -38t124 -38q69 0 107 86h135q-17 -55 -37.5 -97t-51.5 -81t-75.5 -60.5t-99.5 -21.5q-61 0 -159.5 39t-125.5 39
q-66 0 -106 -89z" />
    <glyph glyph-name="Adieresis" unicode="&#xc4;" horiz-adv-x="1478" 
d="M0 0l836 1450h223l420 -1450h-295l-88 332h-629l-178 -332h-289zM586 553h450l-141 590zM608 1696q9 60 59.5 103.5t116.5 43.5q68 0 108.5 -42t31.5 -105q-7 -63 -60 -105.5t-121 -42.5q-66 0 -104.5 44t-30.5 104zM1030 1696q9 60 59.5 103.5t116.5 43.5
q68 0 108.5 -42t31.5 -105q-7 -63 -60 -105.5t-121 -42.5q-66 0 -104.5 44t-30.5 104z" />
    <glyph glyph-name="Aring" unicode="&#xc5;" horiz-adv-x="1478" 
d="M0 0l836 1450h223l420 -1450h-295l-88 332h-629l-178 -332h-289zM586 553h450l-141 590zM1196 1714q-13 -90 -84 -149.5t-162 -59.5t-144.5 59t-41.5 148q13 91 83.5 151t162.5 60q91 0 144.5 -59.5t41.5 -149.5zM1098 1714q6 46 -25 78.5t-78 32.5t-86 -32.5t-45 -78.5
q-7 -46 23.5 -78t77.5 -32t86.5 31t46.5 79z" />
    <glyph glyph-name="AE" unicode="&#xc6;" horiz-adv-x="2048" 
d="M1083 0l54 381h-549l-287 -381h-313l1132 1450h1016l-35 -233h-590l-49 -357h553l-33 -233h-552l-56 -394h615l-33 -233h-873zM754 602h413l86 615h-30z" />
    <glyph glyph-name="Ccedilla" unicode="&#xc7;" horiz-adv-x="1402" 
d="M1534 1257l-221 -147q-63 80 -133 111.5t-152 31.5q-110 0 -209.5 -40.5t-173.5 -110t-123.5 -164.5t-64.5 -203q-21 -154 23 -276t148 -192t251 -70q187 0 352 176l190 -152q-112 -129 -257.5 -192.5t-311.5 -65.5l-70 -86q43 0 72.5 -2.5t64 -12t54 -27t30 -50
t3.5 -78.5q-7 -53 -39.5 -93.5t-79.5 -62.5t-96 -32.5t-99 -10.5q-113 0 -209 58l60 94q71 -41 162 -41q43 0 82.5 20t46.5 66q4 36 -26.5 55t-68.5 19q-30 0 -77 -15l-50 52l127 153q-291 34 -444 237.5t-111 512.5q32 229 155.5 404.5t310.5 269.5t409 94q310 0 475 -230z
" />
    <glyph glyph-name="Egrave" unicode="&#xc8;" horiz-adv-x="1251" 
d="M162 0l205 1450h960l-35 -233h-702l-49 -357h665l-32 -233h-666l-55 -394h739l-33 -233h-997zM778 1843l162 -295h-192l-248 295h278z" />
    <glyph glyph-name="Eacute" unicode="&#xc9;" horiz-adv-x="1251" 
d="M162 0l205 1450h960l-35 -233h-702l-49 -357h665l-32 -233h-666l-55 -394h739l-33 -233h-997zM748 1548l243 295h279l-330 -295h-192z" />
    <glyph glyph-name="Ecircumflex" unicode="&#xca;" horiz-adv-x="1251" 
d="M162 0l205 1450h960l-35 -233h-702l-49 -357h665l-32 -233h-666l-55 -394h739l-33 -233h-997zM1217 1548h-234l-115 185l-168 -185h-229l277 295h276z" />
    <glyph glyph-name="Edieresis" unicode="&#xcb;" horiz-adv-x="1251" 
d="M162 0l205 1450h960l-35 -233h-702l-49 -357h665l-32 -233h-666l-55 -394h739l-33 -233h-997zM496 1696q9 60 59.5 103.5t116.5 43.5q68 0 108 -42t31 -105q-7 -63 -59.5 -105.5t-120.5 -42.5q-66 0 -104.5 44t-30.5 104zM918 1696q9 60 59.5 103.5t116.5 43.5
q68 0 108 -42t31 -105q-7 -63 -59.5 -105.5t-120.5 -42.5q-66 0 -104.5 44t-30.5 104z" />
    <glyph glyph-name="Igrave" unicode="&#xcc;" horiz-adv-x="569" 
d="M156 0l204 1450h258l-204 -1450h-258zM436 1843l162 -295h-192l-248 295h278z" />
    <glyph glyph-name="Iacute" unicode="&#xcd;" horiz-adv-x="569" 
d="M156 0l204 1450h258l-204 -1450h-258zM406 1548l243 295h279l-330 -295h-192z" />
    <glyph glyph-name="Icircumflex" unicode="&#xce;" horiz-adv-x="569" 
d="M156 0l204 1450h258l-204 -1450h-258zM874 1548h-233l-115 185l-168 -185h-229l277 295h276z" />
    <glyph glyph-name="Idieresis" unicode="&#xcf;" horiz-adv-x="569" 
d="M156 0l204 1450h258l-204 -1450h-258zM154 1696q9 60 59.5 103.5t116.5 43.5q68 0 108 -42t31 -105q-7 -63 -59.5 -105.5t-120.5 -42.5q-66 0 -104.5 44t-30.5 104zM575 1696q9 60 60 103.5t117 43.5q68 0 108 -42t31 -105q-7 -63 -59.5 -105.5t-120.5 -42.5
q-66 0 -105 44t-31 104z" />
    <glyph glyph-name="Eth" unicode="&#xd0;" horiz-adv-x="1554" 
d="M162 0l94 664h-135l22 172h136l88 614h571q116 0 219 -27.5t188.5 -86.5t143 -143t81 -204t3.5 -264q-20 -143 -84 -265t-152.5 -205t-197.5 -142t-219.5 -86t-217.5 -27h-540zM453 233h192q125 0 233 28t198 85.5t149.5 154t77.5 224.5q14 103 -1 186t-55 139.5
t-103.5 94.5t-143 55t-175.5 17h-235l-53 -381h442l-23 -172h-442z" />
    <glyph glyph-name="Ntilde" unicode="&#xd1;" horiz-adv-x="1630" 
d="M162 0l205 1450h342l551 -1077h4l151 1077h258l-205 -1450h-327l-561 1112h-5l-155 -1112h-258zM793 1556h-136q17 54 38 97t52.5 82t76.5 60.5t100 21.5q61 0 158 -38t124 -38q69 0 107 86h135q-17 -55 -37.5 -97t-51.5 -81t-75.5 -60.5t-99.5 -21.5q-61 0 -159.5 39
t-125.5 39q-66 0 -106 -89z" />
    <glyph glyph-name="Ograve" unicode="&#xd2;" horiz-adv-x="1705" 
d="M184 719q32 229 155.5 404.5t310.5 269.5t409 94q169 3 305 -50.5t223.5 -152t124 -242t12.5 -315.5q-31 -223 -153.5 -396t-311.5 -268.5t-415 -99.5q-221 0 -382 94t-235 266.5t-43 395.5zM457 735q-21 -154 23 -276t148 -192t251 -70q223 0 382.5 152t192.5 386
q20 144 -24.5 262t-149.5 187t-252 69q-110 0 -209.5 -40.5t-173.5 -110t-123.5 -164.5t-64.5 -203zM1006 1843l161 -295h-192l-248 295h279z" />
    <glyph glyph-name="Oacute" unicode="&#xd3;" horiz-adv-x="1705" 
d="M184 719q32 229 155.5 404.5t310.5 269.5t409 94q169 3 305 -50.5t223.5 -152t124 -242t12.5 -315.5q-31 -223 -153.5 -396t-311.5 -268.5t-415 -99.5q-221 0 -382 94t-235 266.5t-43 395.5zM457 735q-21 -154 23 -276t148 -192t251 -70q223 0 382.5 152t192.5 386
q20 144 -24.5 262t-149.5 187t-252 69q-110 0 -209.5 -40.5t-173.5 -110t-123.5 -164.5t-64.5 -203zM975 1548l244 295h278l-330 -295h-192z" />
    <glyph glyph-name="Ocircumflex" unicode="&#xd4;" horiz-adv-x="1705" 
d="M184 719q32 229 155.5 404.5t310.5 269.5t409 94q169 3 305 -50.5t223.5 -152t124 -242t12.5 -315.5q-31 -223 -153.5 -396t-311.5 -268.5t-415 -99.5q-221 0 -382 94t-235 266.5t-43 395.5zM457 735q-21 -154 23 -276t148 -192t251 -70q223 0 382.5 152t192.5 386
q20 144 -24.5 262t-149.5 187t-252 69q-110 0 -209.5 -40.5t-173.5 -110t-123.5 -164.5t-64.5 -203zM1444 1548h-234l-114 185l-168 -185h-230l277 295h276z" />
    <glyph glyph-name="Otilde" unicode="&#xd5;" horiz-adv-x="1705" 
d="M184 719q32 229 155.5 404.5t310.5 269.5t409 94q169 3 305 -50.5t223.5 -152t124 -242t12.5 -315.5q-31 -223 -153.5 -396t-311.5 -268.5t-415 -99.5q-221 0 -382 94t-235 266.5t-43 395.5zM457 735q-21 -154 23 -276t148 -192t251 -70q223 0 382.5 152t192.5 386
q20 144 -24.5 262t-149.5 187t-252 69q-110 0 -209.5 -40.5t-173.5 -110t-123.5 -164.5t-64.5 -203zM831 1556h-135q17 54 38 97t52.5 82t76.5 60.5t100 21.5q61 0 158 -38t124 -38q69 0 107 86h135q-17 -55 -37.5 -97t-51.5 -81t-75.5 -60.5t-99.5 -21.5q-61 0 -159.5 39
t-125.5 39q-67 0 -107 -89z" />
    <glyph glyph-name="Odieresis" unicode="&#xd6;" horiz-adv-x="1705" 
d="M184 719q32 229 155.5 404.5t310.5 269.5t409 94q169 3 305 -50.5t223.5 -152t124 -242t12.5 -315.5q-31 -223 -153.5 -396t-311.5 -268.5t-415 -99.5q-221 0 -382 94t-235 266.5t-43 395.5zM457 735q-21 -154 23 -276t148 -192t251 -70q223 0 382.5 152t192.5 386
q20 144 -24.5 262t-149.5 187t-252 69q-110 0 -209.5 -40.5t-173.5 -110t-123.5 -164.5t-64.5 -203zM723 1696q9 60 59.5 103.5t116.5 43.5q68 0 108 -42t31 -105q-7 -63 -59.5 -105.5t-120.5 -42.5q-66 0 -104.5 44t-30.5 104zM1145 1696q9 60 59.5 103.5t116.5 43.5
q68 0 108 -42t31 -105q-7 -63 -59.5 -105.5t-120.5 -42.5q-66 0 -104.5 44t-30.5 104z" />
    <glyph glyph-name="multiply" unicode="&#xd7;" horiz-adv-x="1363" 
d="M467 1141l324 -375l423 373l123 -144l-422 -370l326 -381l-174 -152l-322 371l-423 -371l-129 150l430 372l-324 381z" />
    <glyph glyph-name="Oslash" unicode="&#xd8;" horiz-adv-x="1705" 
d="M506 403l803 758q-115 92 -281 92q-110 0 -209.5 -40.5t-173.5 -110t-123.5 -164.5t-64.5 -203q-24 -192 49 -332zM1391 1067l-807 -764q115 -106 295 -106q223 0 382.5 152t192.5 386q28 200 -63 332zM1716 1546l88 -88l-202 -192q169 -206 122 -539
q-31 -223 -153.5 -396t-311.5 -268.5t-415 -99.5q-282 0 -461 152l-201 -189l-90 88l205 193q-156 208 -113 512q32 229 155.5 404.5t310.5 269.5t409 94q267 6 452 -133z" />
    <glyph glyph-name="Ugrave" unicode="&#xd9;" horiz-adv-x="1478" 
d="M1528 1450l-129 -918q-24 -171 -119.5 -301.5t-238 -199t-308.5 -68.5q-124 0 -225.5 40t-169 112.5t-96.5 180t-11 236.5l129 918h258l-129 -909q-7 -36 -3.5 -74.5t12 -75.5t30.5 -70t53 -58t79 -39.5t108 -14.5q88 0 159 31t114 82t67.5 106t32.5 113l129 909h258z
M891 1843l162 -295h-193l-248 295h279z" />
    <glyph glyph-name="Uacute" unicode="&#xda;" horiz-adv-x="1478" 
d="M1528 1450l-129 -918q-24 -171 -119.5 -301.5t-238 -199t-308.5 -68.5q-124 0 -225.5 40t-169 112.5t-96.5 180t-11 236.5l129 918h258l-129 -909q-7 -36 -3.5 -74.5t12 -75.5t30.5 -70t53 -58t79 -39.5t108 -14.5q88 0 159 31t114 82t67.5 106t32.5 113l129 909h258z
M860 1548l244 295h278l-329 -295h-193z" />
    <glyph glyph-name="Ucircumflex" unicode="&#xdb;" horiz-adv-x="1478" 
d="M1528 1450l-129 -918q-24 -171 -119.5 -301.5t-238 -199t-308.5 -68.5q-124 0 -225.5 40t-169 112.5t-96.5 180t-11 236.5l129 918h258l-129 -909q-7 -36 -3.5 -74.5t12 -75.5t30.5 -70t53 -58t79 -39.5t108 -14.5q88 0 159 31t114 82t67.5 106t32.5 113l129 909h258z
M1329 1548h-233l-115 185l-168 -185h-229l276 295h277z" />
    <glyph glyph-name="Udieresis" unicode="&#xdc;" horiz-adv-x="1478" 
d="M1528 1450l-129 -918q-24 -171 -119.5 -301.5t-238 -199t-308.5 -68.5q-124 0 -225.5 40t-169 112.5t-96.5 180t-11 236.5l129 918h258l-129 -909q-7 -36 -3.5 -74.5t12 -75.5t30.5 -70t53 -58t79 -39.5t108 -14.5q88 0 159 31t114 82t67.5 106t32.5 113l129 909h258z
M608 1696q9 60 59.5 103.5t116.5 43.5q68 0 108.5 -42t31.5 -105q-7 -63 -60 -105.5t-121 -42.5q-66 0 -104.5 44t-30.5 104zM1030 1696q9 60 59.5 103.5t116.5 43.5q68 0 108.5 -42t31.5 -105q-7 -63 -60 -105.5t-121 -42.5q-66 0 -104.5 44t-30.5 104z" />
    <glyph glyph-name="Yacute" unicode="&#xdd;" horiz-adv-x="1290" 
d="M516 0l88 621l-428 829h324l274 -578l443 578h307l-662 -829l-88 -621h-258zM766 1548l244 295h278l-330 -295h-192z" />
    <glyph glyph-name="Thorn" unicode="&#xde;" horiz-adv-x="1251" 
d="M162 0l205 1450h258l-41 -281h229q88 0 162 -12.5t139.5 -42.5t108 -77t61 -120t4.5 -167q-15 -106 -57.5 -184.5t-100 -125t-139.5 -74.5t-162 -37.5t-180 -9.5h-184l-45 -319h-258zM496 541h155q39 0 66 1t66 5t66.5 12t58.5 23t51.5 36t36.5 53.5t22 73.5q7 51 -7 89
t-40.5 59.5t-68 34t-80 16.5t-85.5 4h-184z" />
    <glyph glyph-name="germandbls" unicode="&#xdf;" horiz-adv-x="1251" 
d="M115 0l147 1047q38 275 176 400.5t389 125.5q91 0 167 -24t131.5 -70.5t81 -119.5t12.5 -165q-15 -112 -83.5 -196.5t-179.5 -127.5l-2 -4q104 -14 171.5 -74.5t91 -148.5t8.5 -197q-31 -210 -184 -340.5t-365 -130.5q-89 0 -168 23l29 207q46 -21 110 -21q131 0 223 77
t111 206q20 141 -54.5 217t-215.5 76h-29l29 209h16q93 0 161 51.5t81 140.5q10 83 -42.5 137t-138.5 54q-118 0 -188 -68.5t-84 -179.5l-156 -1104h-245z" />
    <glyph glyph-name="agrave" unicode="&#xe0;" horiz-adv-x="1099" 
d="M754 0l18 135h-6q-121 -160 -338 -160q-94 0 -169 32t-117.5 101t-28.5 162q9 66 38 119t68.5 88.5t96.5 61t110 39.5t121 22t118.5 10t112.5 2h62l4 27q12 88 -43 136t-156 48q-151 0 -278 -102l-111 129q178 158 440 158q146 0 234.5 -49t108.5 -118t26.5 -144.5
t-10.5 -127.5v-4l-80 -565h-221zM793 385l8 55h-51q-369 0 -390 -151q-8 -63 39 -96t115 -33q123 0 194 60t85 165zM649 1450l160 -295h-193l-245 295h278z" />
    <glyph glyph-name="aacute" unicode="&#xe1;" horiz-adv-x="1099" 
d="M754 0l18 135h-6q-121 -160 -338 -160q-94 0 -169 32t-117.5 101t-28.5 162q9 66 38 119t68.5 88.5t96.5 61t110 39.5t121 22t118.5 10t112.5 2h62l4 27q12 88 -43 136t-156 48q-151 0 -278 -102l-111 129q178 158 440 158q146 0 234.5 -49t108.5 -118t26.5 -144.5
t-10.5 -127.5v-4l-80 -565h-221zM793 385l8 55h-51q-369 0 -390 -151q-8 -63 39 -96t115 -33q123 0 194 60t85 165zM616 1155l246 295h279l-332 -295h-193z" />
    <glyph glyph-name="acircumflex" unicode="&#xe2;" horiz-adv-x="1099" 
d="M754 0l18 135h-6q-121 -160 -338 -160q-94 0 -169 32t-117.5 101t-28.5 162q9 66 38 119t68.5 88.5t96.5 61t110 39.5t121 22t118.5 10t112.5 2h62l4 27q12 88 -43 136t-156 48q-151 0 -278 -102l-111 129q178 158 440 158q146 0 234.5 -49t108.5 -118t26.5 -144.5
t-10.5 -127.5v-4l-80 -565h-221zM793 385l8 55h-51q-369 0 -390 -151q-8 -63 39 -96t115 -33q123 0 194 60t85 165zM1085 1155h-233l-115 184l-168 -184h-229l278 295h277z" />
    <glyph glyph-name="atilde" unicode="&#xe3;" horiz-adv-x="1099" 
d="M754 0l18 135h-6q-121 -160 -338 -160q-94 0 -169 32t-117.5 101t-28.5 162q9 66 38 119t68.5 88.5t96.5 61t110 39.5t121 22t118.5 10t112.5 2h62l4 27q12 88 -43 136t-156 48q-151 0 -278 -102l-111 129q178 158 440 158q146 0 234.5 -49t108.5 -118t26.5 -144.5
t-10.5 -127.5v-4l-80 -565h-221zM793 385l8 55h-51q-369 0 -390 -151q-8 -63 39 -96t115 -33q123 0 194 60t85 165zM473 1163h-135q17 54 38 96.5t52 81.5t76 60.5t100 21.5q61 0 158.5 -37.5t124.5 -37.5q68 0 106 86h135q-17 -55 -37.5 -97t-51.5 -81t-75.5 -60.5
t-99.5 -21.5q-61 0 -159 38.5t-125 38.5q-68 0 -107 -88z" />
    <glyph glyph-name="adieresis" unicode="&#xe4;" horiz-adv-x="1099" 
d="M754 0l18 135h-6q-121 -160 -338 -160q-94 0 -169 32t-117.5 101t-28.5 162q9 66 38 119t68.5 88.5t96.5 61t110 39.5t121 22t118.5 10t112.5 2h62l4 27q12 88 -43 136t-156 48q-151 0 -278 -102l-111 129q178 158 440 158q146 0 234.5 -49t108.5 -118t26.5 -144.5
t-10.5 -127.5v-4l-80 -565h-221zM793 385l8 55h-51q-369 0 -390 -151q-8 -63 39 -96t115 -33q123 0 194 60t85 165zM365 1303q9 60 60.5 103.5t117.5 43.5q68 0 107 -42t30 -105q-7 -63 -59.5 -105.5t-120.5 -42.5q-66 0 -104.5 44t-30.5 104zM786 1303q9 60 61 103.5
t118 43.5q68 0 107 -42t30 -105q-7 -63 -59.5 -105.5t-120.5 -42.5q-66 0 -105 44t-31 104z" />
    <glyph glyph-name="aring" unicode="&#xe5;" horiz-adv-x="1099" 
d="M754 0l18 135h-6q-121 -160 -338 -160q-94 0 -169 32t-117.5 101t-28.5 162q9 66 38 119t68.5 88.5t96.5 61t110 39.5t121 22t118.5 10t112.5 2h62l4 27q12 88 -43 136t-156 48q-151 0 -278 -102l-111 129q178 158 440 158q146 0 234.5 -49t108.5 -118t26.5 -144.5
t-10.5 -127.5v-4l-80 -565h-221zM793 385l8 55h-51q-369 0 -390 -151q-8 -63 39 -96t115 -33q123 0 194 60t85 165zM954 1341q-12 -90 -81.5 -149t-161.5 -59q-91 0 -145 58.5t-42 147.5q12 91 82 151t162 60q91 0 144.5 -59.5t41.5 -149.5zM856 1341q6 47 -24 79t-76 32
q-47 0 -87 -32.5t-46 -78.5q-6 -47 24 -78.5t76 -31.5q48 0 87.5 31t45.5 79z" />
    <glyph glyph-name="ae" unicode="&#xe6;" horiz-adv-x="1744" 
d="M1739 485l-8 -67h-717q-20 -112 48 -185t155 -73q154 0 280 133l154 -121q-183 -197 -461 -197q-119 0 -207.5 49.5t-134.5 127.5q-137 -175 -420 -175q-67 0 -127 18t-106.5 52.5t-69 92.5t-12.5 132q24 169 153 243.5t365 74.5h200q15 110 -32 172.5t-154 62.5
q-152 0 -276 -102l-113 129q178 158 440 158q92 3 174.5 -34.5t130.5 -111.5q153 147 338 144q116 0 202 -41t133.5 -112.5t64 -165.5t0.5 -204zM512 162q118 0 199 69.5t94 161.5l4 25h-123q-309 0 -326 -129q-7 -44 19 -74t61 -41.5t72 -11.5zM1040 590h476
q9 106 -44.5 169.5t-158.5 63.5q-100 0 -175.5 -65.5t-97.5 -167.5z" />
    <glyph glyph-name="ccedilla" unicode="&#xe7;" horiz-adv-x="987" 
d="M1102 858l-195 -170q-81 98 -172 98q-130 0 -221.5 -86.5t-107.5 -207.5q-18 -121 48.5 -208t196.5 -87q122 0 205 92l139 -176q-77 -67 -185 -102.5t-185 -35.5l-82 -98q43 0 72.5 -2.5t64 -12t53.5 -27t29.5 -50t3.5 -78.5q-7 -53 -39.5 -93.5t-79 -62.5t-95.5 -32.5
t-99 -10.5q-113 0 -209 58l59 94q71 -41 162 -41q43 0 82.5 20t46.5 66q4 36 -26 55t-68 19q-31 0 -78 -15l-49 52l141 170q-183 33 -283 170.5t-71 335.5q21 151 109 269.5t218.5 182.5t278.5 64q99 0 189 -37.5t147 -112.5z" />
    <glyph glyph-name="egrave" unicode="&#xe8;" horiz-adv-x="1175" 
d="M1143 406h-750q-3 -107 62 -170.5t170 -63.5q156 0 282 133l158 -133q-189 -197 -444 -197q-111 0 -203.5 37.5t-155 104.5t-90.5 164.5t-12 210.5q21 151 109 269.5t218.5 182.5t278.5 64q209 0 315 -141.5t70 -393.5zM418 590h504q14 108 -43 170.5t-172 62.5
q-107 0 -183 -63t-106 -170zM686 1450l160 -295h-193l-245 295h278z" />
    <glyph glyph-name="eacute" unicode="&#xe9;" horiz-adv-x="1175" 
d="M1143 406h-750q-3 -107 62 -170.5t170 -63.5q156 0 282 133l158 -133q-189 -197 -444 -197q-111 0 -203.5 37.5t-155 104.5t-90.5 164.5t-12 210.5q21 151 109 269.5t218.5 182.5t278.5 64q209 0 315 -141.5t70 -393.5zM418 590h504q14 108 -43 170.5t-172 62.5
q-107 0 -183 -63t-106 -170zM653 1155l246 295h279l-332 -295h-193z" />
    <glyph glyph-name="ecircumflex" unicode="&#xea;" horiz-adv-x="1175" 
d="M1143 406h-750q-3 -107 62 -170.5t170 -63.5q156 0 282 133l158 -133q-189 -197 -444 -197q-111 0 -203.5 37.5t-155 104.5t-90.5 164.5t-12 210.5q21 151 109 269.5t218.5 182.5t278.5 64q209 0 315 -141.5t70 -393.5zM418 590h504q14 108 -43 170.5t-172 62.5
q-107 0 -183 -63t-106 -170zM1122 1155h-233l-115 184l-168 -184h-229l278 295h277z" />
    <glyph glyph-name="edieresis" unicode="&#xeb;" horiz-adv-x="1175" 
d="M1143 406h-750q-3 -107 62 -170.5t170 -63.5q156 0 282 133l158 -133q-189 -197 -444 -197q-111 0 -203.5 37.5t-155 104.5t-90.5 164.5t-12 210.5q21 151 109 269.5t218.5 182.5t278.5 64q209 0 315 -141.5t70 -393.5zM418 590h504q14 108 -43 170.5t-172 62.5
q-107 0 -183 -63t-106 -170zM401 1303q9 60 61 103.5t118 43.5q68 0 107 -42t30 -105q-7 -63 -59.5 -105.5t-120.5 -42.5q-66 0 -105 44t-31 104zM823 1303q9 60 60.5 103.5t117.5 43.5q68 0 107.5 -42t30.5 -105q-7 -63 -60 -105.5t-121 -42.5q-66 0 -104.5 44t-30.5 104z
" />
    <glyph glyph-name="igrave" unicode="&#xec;" 
d="M143 0l138 983h245l-137 -983h-246zM389 1450l160 -295h-193l-245 295h278z" />
    <glyph glyph-name="iacute" unicode="&#xed;" 
d="M143 0l138 983h245l-137 -983h-246zM307 1155l246 295h278l-331 -295h-193z" />
    <glyph glyph-name="icircumflex" unicode="&#xee;" 
d="M143 0l138 983h245l-137 -983h-246zM801 1155h-234l-114 184l-168 -184h-230l279 295h276z" />
    <glyph glyph-name="idieresis" unicode="&#xef;" 
d="M143 0l138 983h245l-137 -983h-246zM80 1303q9 60 60.5 103.5t117.5 43.5q68 0 107 -42t30 -105q-7 -63 -59.5 -105.5t-120.5 -42.5q-66 0 -104.5 44t-30.5 104zM502 1303q9 60 60.5 103.5t117.5 43.5q68 0 107 -42t30 -105q-7 -63 -59.5 -105.5t-120.5 -42.5
q-66 0 -104.5 44t-30.5 104z" />
    <glyph glyph-name="eth" unicode="&#xf0;" horiz-adv-x="1249" 
d="M1126 1573l115 -115l-256 -110q308 -394 254 -781q-25 -174 -102.5 -305.5t-210.5 -209t-305 -77.5q-111 0 -203.5 37.5t-155 104.5t-90.5 164.5t-12 210.5q32 226 202 371t383 145q154 0 224 -78l4 4q-62 133 -215 311l-4 6l-232 -100l-106 117l233 102q-14 17 -39 41
t-57.5 53t-42.5 39l221 119q54 -47 154 -154zM651 197q130 0 222 87t110 208q16 121 -51 207.5t-197 86.5t-221.5 -86.5t-107.5 -207.5q-18 -121 48.5 -208t196.5 -87z" />
    <glyph glyph-name="ntilde" unicode="&#xf1;" horiz-adv-x="1175" 
d="M139 0l137 983h234l-21 -158h5q47 81 128.5 132t196.5 51q77 0 135.5 -21t93.5 -57.5t56.5 -85.5t23.5 -105.5t-4 -117.5l-88 -621h-245l69 498q5 34 7 60t2 62.5t-8.5 63t-23.5 51.5t-45 38t-71 13q-114 0 -179.5 -70.5t-80.5 -178.5l-76 -537h-246zM510 1163h-135
q17 54 38 96.5t52 81.5t76 60.5t100 21.5q61 0 158.5 -37.5t124.5 -37.5q68 0 106 86h135q-17 -55 -37.5 -97t-51.5 -81t-75.5 -60.5t-99.5 -21.5q-61 0 -159.5 38.5t-125.5 38.5q-67 0 -106 -88z" />
    <glyph glyph-name="ograve" unicode="&#xf2;" horiz-adv-x="1249" 
d="M160 492q21 151 109 269.5t218.5 182.5t278.5 64q111 0 203.5 -37.5t155.5 -104t91.5 -164t12.5 -210.5q-21 -151 -109.5 -270t-219.5 -183t-279 -64q-111 0 -203.5 37.5t-155 104.5t-90.5 164.5t-12 210.5zM406 492q-18 -121 48.5 -208t196.5 -87t222 87t110 208
q16 121 -51 207.5t-197 86.5t-221.5 -86.5t-107.5 -207.5zM723 1450l160 -295h-193l-246 295h279z" />
    <glyph glyph-name="oacute" unicode="&#xf3;" horiz-adv-x="1249" 
d="M160 492q21 151 109 269.5t218.5 182.5t278.5 64q111 0 203.5 -37.5t155.5 -104t91.5 -164t12.5 -210.5q-21 -151 -109.5 -270t-219.5 -183t-279 -64q-111 0 -203.5 37.5t-155 104.5t-90.5 164.5t-12 210.5zM406 492q-18 -121 48.5 -208t196.5 -87t222 87t110 208
q16 121 -51 207.5t-197 86.5t-221.5 -86.5t-107.5 -207.5zM690 1155l246 295h278l-331 -295h-193z" />
    <glyph glyph-name="ocircumflex" unicode="&#xf4;" horiz-adv-x="1249" 
d="M160 492q21 151 109 269.5t218.5 182.5t278.5 64q111 0 203.5 -37.5t155.5 -104t91.5 -164t12.5 -210.5q-21 -151 -109.5 -270t-219.5 -183t-279 -64q-111 0 -203.5 37.5t-155 104.5t-90.5 164.5t-12 210.5zM406 492q-18 -121 48.5 -208t196.5 -87t222 87t110 208
q16 121 -51 207.5t-197 86.5t-221.5 -86.5t-107.5 -207.5zM1159 1155h-233l-115 184l-168 -184h-229l278 295h277z" />
    <glyph glyph-name="otilde" unicode="&#xf5;" horiz-adv-x="1249" 
d="M160 492q21 151 109 269.5t218.5 182.5t278.5 64q111 0 203.5 -37.5t155.5 -104t91.5 -164t12.5 -210.5q-21 -151 -109.5 -270t-219.5 -183t-279 -64q-111 0 -203.5 37.5t-155 104.5t-90.5 164.5t-12 210.5zM406 492q-18 -121 48.5 -208t196.5 -87t222 87t110 208
q16 121 -51 207.5t-197 86.5t-221.5 -86.5t-107.5 -207.5zM547 1163h-135q17 54 38 96.5t52 81.5t76 60.5t100 21.5q61 0 158.5 -37.5t124.5 -37.5q68 0 106 86h135q-17 -55 -37.5 -97t-51.5 -81t-75.5 -60.5t-99.5 -21.5q-61 0 -159.5 38.5t-125.5 38.5q-67 0 -106 -88z
" />
    <glyph glyph-name="odieresis" unicode="&#xf6;" horiz-adv-x="1249" 
d="M160 492q21 151 109 269.5t218.5 182.5t278.5 64q111 0 203.5 -37.5t155.5 -104t91.5 -164t12.5 -210.5q-21 -151 -109.5 -270t-219.5 -183t-279 -64q-111 0 -203.5 37.5t-155 104.5t-90.5 164.5t-12 210.5zM406 492q-18 -121 48.5 -208t196.5 -87t222 87t110 208
q16 121 -51 207.5t-197 86.5t-221.5 -86.5t-107.5 -207.5zM438 1303q9 60 60.5 103.5t117.5 43.5q68 0 107.5 -42t30.5 -105q-7 -63 -60 -105.5t-121 -42.5q-66 0 -104.5 44t-30.5 104zM860 1303q9 60 60.5 103.5t117.5 43.5q68 0 107.5 -42t30.5 -105q-7 -63 -60 -105.5
t-121 -42.5q-66 0 -104.5 44t-30.5 104z" />
    <glyph glyph-name="divide" unicode="&#xf7;" horiz-adv-x="1363" 
d="M229 725h1110l-30 -209h-1110zM668 989q9 63 60 108.5t114 45.5t102.5 -45.5t30.5 -108.5t-61 -108t-115 -45t-101.5 45t-29.5 108zM563 252q9 63 61 108.5t115 45.5t101.5 -45.5t29.5 -108.5q-7 -63 -59 -108.5t-115 -45.5t-102 45.5t-31 108.5z" />
    <glyph glyph-name="oslash" unicode="&#xf8;" horiz-adv-x="1249" 
d="M428 328l463 409q-62 49 -156 49q-130 0 -221.5 -86.5t-107.5 -207.5q-13 -93 22 -164zM963 651l-463 -407q59 -47 151 -47q130 0 222 87t110 208q12 84 -20 159zM1247 1053l76 -82l-164 -146q96 -140 70 -333q-21 -151 -109.5 -270t-219.5 -183t-279 -64
q-184 0 -312 101l-164 -146l-69 84l157 140q-103 134 -73 338q21 151 109 269.5t218.5 182.5t278.5 64q190 0 315 -103z" />
    <glyph glyph-name="ugrave" unicode="&#xf9;" horiz-adv-x="1175" 
d="M1174 983l-138 -983h-233l22 158h-4q-49 -82 -130.5 -132.5t-196.5 -50.5q-77 0 -136 21t-93.5 57.5t-56 85.5t-23.5 105.5t5 117.5l86 621h246l-69 -498q-5 -36 -6.5 -60t-2 -62t8 -63.5t23.5 -51t45 -38.5t71 -13q114 0 180.5 71t81.5 178l74 537h246zM686 1450
l160 -295h-193l-245 295h278z" />
    <glyph glyph-name="uacute" unicode="&#xfa;" horiz-adv-x="1175" 
d="M1174 983l-138 -983h-233l22 158h-4q-49 -82 -130.5 -132.5t-196.5 -50.5q-77 0 -136 21t-93.5 57.5t-56 85.5t-23.5 105.5t5 117.5l86 621h246l-69 -498q-5 -36 -6.5 -60t-2 -62t8 -63.5t23.5 -51t45 -38.5t71 -13q114 0 180.5 71t81.5 178l74 537h246zM653 1155
l246 295h279l-332 -295h-193z" />
    <glyph glyph-name="ucircumflex" unicode="&#xfb;" horiz-adv-x="1175" 
d="M1174 983l-138 -983h-233l22 158h-4q-49 -82 -130.5 -132.5t-196.5 -50.5q-77 0 -136 21t-93.5 57.5t-56 85.5t-23.5 105.5t5 117.5l86 621h246l-69 -498q-5 -36 -6.5 -60t-2 -62t8 -63.5t23.5 -51t45 -38.5t71 -13q114 0 180.5 71t81.5 178l74 537h246zM1122 1155h-233
l-115 184l-168 -184h-229l278 295h277z" />
    <glyph glyph-name="udieresis" unicode="&#xfc;" horiz-adv-x="1175" 
d="M1174 983l-138 -983h-233l22 158h-4q-49 -82 -130.5 -132.5t-196.5 -50.5q-77 0 -136 21t-93.5 57.5t-56 85.5t-23.5 105.5t5 117.5l86 621h246l-69 -498q-5 -36 -6.5 -60t-2 -62t8 -63.5t23.5 -51t45 -38.5t71 -13q114 0 180.5 71t81.5 178l74 537h246zM401 1303
q9 60 61 103.5t118 43.5q68 0 107 -42t30 -105q-7 -63 -59.5 -105.5t-120.5 -42.5q-66 0 -105 44t-31 104zM823 1303q9 60 60.5 103.5t117.5 43.5q68 0 107.5 -42t30.5 -105q-7 -63 -60 -105.5t-121 -42.5q-66 0 -104.5 44t-30.5 104z" />
    <glyph glyph-name="yacute" unicode="&#xfd;" horiz-adv-x="1062" 
d="M424 -8l-281 991h271l180 -682h4l340 682h256l-631 -1194q-39 -73 -76.5 -122t-86.5 -86.5t-111 -55t-142 -17.5q-92 0 -184 25l62 221q63 -24 120 -24q86 0 128.5 31.5t86.5 113.5zM598 1155l246 295h278l-331 -295h-193z" />
    <glyph glyph-name="thorn" unicode="&#xfe;" horiz-adv-x="1290" 
d="M74 -467l282 2015h246l-96 -692h4q53 72 147 112t199 40q148 0 250 -68.5t143.5 -185t20.5 -262.5q-31 -221 -186 -369t-363 -148q-213 0 -311 150h-7l-84 -592h-245zM1024 492q16 121 -51 207.5t-197 86.5t-222 -87t-108 -207q-18 -121 49 -208t197 -87t222 87t110 208z
" />
    <glyph glyph-name="ydieresis" unicode="&#xff;" horiz-adv-x="1062" 
d="M424 -8l-281 991h271l180 -682h4l340 682h256l-631 -1194q-39 -73 -76.5 -122t-86.5 -86.5t-111 -55t-142 -17.5q-92 0 -184 25l62 221q63 -24 120 -24q86 0 128.5 31.5t86.5 113.5zM346 1303q9 60 60.5 103.5t117.5 43.5q68 0 107.5 -42t30.5 -105q-7 -63 -60 -105.5
t-121 -42.5q-66 0 -104.5 44t-30.5 104zM768 1303q9 60 60.5 103.5t117.5 43.5q68 0 107 -42t30 -105q-7 -63 -59.5 -105.5t-120.5 -42.5q-66 0 -104.5 44t-30.5 104z" />
    <glyph glyph-name="dotlessi" unicode="&#x131;" 
d="M143 0l138 983h245l-137 -983h-246z" />
    <glyph glyph-name="Lslash" unicode="&#x141;" horiz-adv-x="1062" 
d="M162 0l53 383l-160 -127l31 225l162 127l119 842h258l-88 -614l475 370l-33 -223l-473 -373l-53 -377h616l-33 -233h-874z" />
    <glyph glyph-name="lslash" unicode="&#x142;" 
d="M143 0l78 559l-160 -141l31 223l162 141l106 766h246l-74 -522l162 141l-30 -219l-160 -139l-115 -809h-246z" />
    <glyph glyph-name="OE" unicode="&#x152;" horiz-adv-x="2048" 
d="M1491 1217l-49 -357h553l-33 -233h-553l-55 -394h624l-32 -233h-1018q-192 0 -340.5 55.5t-238.5 153t-127.5 230t-16.5 286.5q21 155 96 288t193 230t282.5 152t356.5 55h983l-35 -233h-590zM1096 233l137 984h-129q-43 0 -90.5 -6t-104 -22t-110 -40.5t-106 -63.5
t-93.5 -88.5t-71.5 -119.5t-41.5 -152q-14 -85 -1 -152.5t38.5 -119t68.5 -89t88.5 -63t98.5 -40.5t98.5 -21.5t88.5 -6.5h129z" />
    <glyph glyph-name="oe" unicode="&#x153;" horiz-adv-x="1896" 
d="M1882 418h-717q-19 -103 50 -174.5t155 -71.5q155 0 281 133l153 -121q-180 -209 -463 -209q-120 0 -208 41t-134 117q-164 -158 -395 -158q-111 0 -203.5 37.5t-155 104.5t-90.5 164.5t-12 210.5q21 151 109.5 270t219 182.5t278.5 63.5q234 0 354 -160q153 160 387 160
q116 0 202 -41t133 -112.5t63.5 -165.5t0.5 -204zM1180 590h479q13 106 -40.5 169.5t-152.5 63.5q-96 0 -181.5 -62.5t-104.5 -170.5zM389 492q-19 -129 48 -218.5t198 -89.5q133 0 224.5 89t111.5 219q18 129 -49 218t-201 89q-131 0 -222.5 -89t-109.5 -218z" />
    <glyph glyph-name="Scaron" unicode="&#x160;" horiz-adv-x="1175" 
d="M1249 1337l-217 -198q-33 56 -96 85t-141 29q-99 0 -175.5 -46.5t-89.5 -139.5q-7 -46 12 -81t55.5 -58t85.5 -41.5t103.5 -37t109 -39.5t101.5 -53.5t80.5 -75t48 -107.5t2.5 -148q-16 -113 -71 -203t-136.5 -146t-180.5 -85t-208 -29q-143 0 -259.5 48t-186.5 149
l221 188q36 -71 106.5 -111t157.5 -40q99 0 184.5 52.5t98.5 145.5q7 50 -11 88.5t-54.5 62.5t-85.5 44t-103.5 38t-108.5 39t-101.5 53t-81 74t-48 107t-2.5 148q15 108 72.5 194t141 138t181.5 79t201 27q256 0 395 -150zM475 1843h234l116 -184l166 184h226l-277 -295
h-272z" />
    <glyph glyph-name="scaron" unicode="&#x161;" horiz-adv-x="909" 
d="M948 858l-184 -147q-59 100 -178 100q-56 0 -104 -26.5t-56 -77.5q-4 -31 15.5 -52.5t55.5 -32.5t82 -23t94 -22.5t93 -32.5t78 -51.5t48.5 -81t6.5 -120.5q-12 -84 -58 -147t-114 -99t-142.5 -53t-154.5 -17q-247 0 -360 152l184 154q45 -59 95 -90t122 -31q62 0 117 29
t63 83q6 41 -19.5 67t-70.5 39.5t-100 24.5t-109 29t-97 46t-65 82t-12 130q11 79 53.5 141.5t104 100t133.5 57t149 19.5q107 0 195 -36.5t135 -113.5zM289 1450h233l115 -184l168 184h225l-278 -295h-273z" />
    <glyph glyph-name="Ydieresis" unicode="&#x178;" horiz-adv-x="1290" 
d="M516 0l88 621l-428 829h324l274 -578l443 578h307l-662 -829l-88 -621h-258zM514 1696q9 60 59.5 103.5t116.5 43.5q68 0 108 -42t31 -105q-7 -63 -59.5 -105.5t-120.5 -42.5q-66 0 -104.5 44t-30.5 104zM936 1696q9 60 59.5 103.5t116.5 43.5q68 0 108 -42t31 -105
q-7 -63 -59.5 -105.5t-120.5 -42.5q-66 0 -104.5 44t-30.5 104z" />
    <glyph glyph-name="Zcaron" unicode="&#x17d;" horiz-adv-x="1251" 
d="M72 0l32 233l912 984h-762l35 233h1083l-35 -233l-917 -984h792l-32 -233h-1108zM514 1843h234l116 -184l166 184h225l-276 -295h-272z" />
    <glyph glyph-name="zcaron" unicode="&#x17e;" horiz-adv-x="987" 
d="M70 0l32 227l605 555v4h-502l26 197h799l-31 -223l-612 -563h557l-26 -197h-848zM328 1450h233l115 -184l168 184h225l-278 -295h-273z" />
    <glyph glyph-name="florin" unicode="&#x192;" horiz-adv-x="1212" 
d="M1106 872l-27 -184h-282l-199 -590q-66 -196 -172.5 -289.5t-265.5 -93.5q-113 0 -201 49l119 189q40 -29 92 -29q73 0 115 53.5t77 159.5l187 551h-232l27 184h268l76 228q29 84 63.5 146.5t84 117t118.5 83t156 28.5q122 0 231 -64l-120 -190q-53 32 -109 32
q-35 0 -64 -13.5t-47 -31t-35.5 -50.5t-26 -54.5t-21.5 -59.5l-62 -172h250z" />
    <glyph glyph-name="circumflex" unicode="&#x2c6;" 
d="M801 1155h-234l-114 184l-168 -184h-230l279 295h276z" />
    <glyph glyph-name="caron" unicode="&#x2c7;" 
d="M100 1450h234l115 -184l167 184h226l-279 -295h-272z" />
    <glyph glyph-name="uni02C9" unicode="&#x2c9;" 
d="M788 1378l-22 -159h-655l22 159h655z" />
    <glyph glyph-name="breve" unicode="&#x2d8;" 
d="M123 1450h137q3 -135 191 -135q96 0 148.5 27t84.5 108h135q-36 -147 -139 -221t-254 -74q-153 0 -234.5 73.5t-68.5 221.5z" />
    <glyph glyph-name="dotaccent" unicode="&#x2d9;" 
d="M291 1303q9 60 60.5 103.5t117.5 43.5q68 0 107 -42t30 -105q-7 -63 -59.5 -105.5t-120.5 -42.5q-66 0 -104.5 44t-30.5 104z" />
    <glyph glyph-name="ring" unicode="&#x2da;" 
d="M670 1341q-12 -90 -82 -149t-162 -59q-91 0 -144.5 58.5t-41.5 147.5q12 91 81.5 151t161.5 60q91 0 145 -59.5t42 -149.5zM571 1341q6 47 -24 79t-76 32q-47 0 -87 -32.5t-46 -78.5q-6 -47 24 -78.5t76 -31.5q48 0 87.5 31t45.5 79z" />
    <glyph glyph-name="ogonek" unicode="&#x2db;" 
d="M319 -301l37 -100q-109 -78 -215 -78q-87 0 -142 48.5t-42 133.5q11 79 85 163t163 146h125q-70 -53 -134.5 -127.5t-72.5 -134.5q-6 -38 18 -66t62 -28q63 0 116 43z" />
    <glyph glyph-name="tilde" unicode="&#x2dc;" 
d="M188 1163h-135q17 54 38 96.5t52 81.5t76 60.5t100 21.5q61 0 158.5 -37.5t124.5 -37.5q69 0 107 86h135q-17 -55 -37.5 -97t-51.5 -81t-75.5 -60.5t-99.5 -21.5q-61 0 -159.5 38.5t-125.5 38.5q-68 0 -107 -88z" />
    <glyph glyph-name="hungarumlaut" unicode="&#x2dd;" 
d="M121 1155l246 295h278l-332 -295h-192zM541 1155l245 295h279l-332 -295h-192z" />
    <glyph glyph-name="uni03A9" unicode="&#x3a9;" horiz-adv-x="1554" 
d="M426 182v6q-106 103 -164 257t-31 346q20 140 87 265t166.5 215t231 142.5t273.5 52.5q119 0 218.5 -37.5t166.5 -102t110.5 -149t57.5 -181t0 -195.5q-27 -197 -130 -356t-238 -257v-6h311l-27 -182h-555l19 135q138 79 243 235t138 386q9 80 4.5 155.5t-31.5 142.5
t-67.5 117t-104.5 79.5t-143 29.5q-189 0 -329 -151.5t-173 -380.5q-30 -215 32.5 -378.5t176.5 -234.5l-19 -135h-557l27 182h307z" />
    <glyph glyph-name="uni03BC" unicode="&#x3bc;" horiz-adv-x="1175" 
d="M276 983h246l-69 -498q-5 -36 -6.5 -60t-2 -62t8 -63.5t23.5 -51t45 -38.5t71 -13q114 0 180.5 71t81.5 178l74 537h246l-138 -983h-233l22 158h-4q-49 -82 -130.5 -132.5t-196.5 -50.5q-62 0 -111 15l-64 -457h-245z" />
    <glyph glyph-name="pi" unicode="&#x3c0;" horiz-adv-x="1275" 
d="M1348 889h-162l-80 -576q-31 -201 -16 -313h-224q-28 61 6 299l82 590h-336q-38 -204 -117.5 -476.5t-152.5 -412.5h-225q79 165 157.5 430.5t110.5 458.5q-156 0 -229 -23l-6 150q95 65 344 65h893z" />
    <glyph glyph-name="endash" unicode="&#x2013;" horiz-adv-x="1024" 
d="M1108 602l-27 -196h-1024l27 196h1024z" />
    <glyph glyph-name="emdash" unicode="&#x2014;" horiz-adv-x="2048" 
d="M2132 602l-27 -196h-2048l27 196h2048z" />
    <glyph glyph-name="quoteleft" unicode="&#x2018;" horiz-adv-x="606" 
d="M705 1450l-222 -541h-250l252 541h220z" />
    <glyph glyph-name="quoteright" unicode="&#x2019;" horiz-adv-x="606" 
d="M233 909l222 541h250l-252 -541h-220z" />
    <glyph glyph-name="quotesinglbase" unicode="&#x201a;" horiz-adv-x="606" 
d="M70 -258l219 541h250l-250 -541h-219z" />
    <glyph glyph-name="quotedblleft" unicode="&#x201c;" horiz-adv-x="1062" 
d="M717 1450l-221 -541h-250l252 541h219zM1149 1450l-221 -541h-250l252 541h219z" />
    <glyph glyph-name="quotedblright" unicode="&#x201d;" horiz-adv-x="1062" 
d="M678 909l221 541h250l-252 -541h-219zM246 909l221 541h250l-252 -541h-219z" />
    <glyph glyph-name="quotedblbase" unicode="&#x201e;" horiz-adv-x="1062" 
d="M512 -258l219 541h250l-250 -541h-219zM84 -258l219 541h250l-250 -541h-219z" />
    <glyph glyph-name="dagger" unicode="&#x2020;" horiz-adv-x="1214" 
d="M928 1450l-60 -416h408l-29 -196h-407l-154 -1096h-233l153 1096h-405l28 196h406l59 416h234z" />
    <glyph glyph-name="daggerdbl" unicode="&#x2021;" horiz-adv-x="1214" 
d="M928 1450l-54 -379h396l-29 -197h-395l-78 -555h395l-28 -196h-396l-53 -381h-233l53 381h-393l28 196h394l77 555h-393l29 197h393l53 379h234z" />
    <glyph glyph-name="bullet" unicode="&#x2022;" horiz-adv-x="1024" 
d="M252 725q22 151 142.5 256.5t271.5 105.5t242 -105.5t69 -256.5t-142.5 -257t-271.5 -106t-242 106t-69 257z" />
    <glyph glyph-name="ellipsis" unicode="&#x2026;" horiz-adv-x="2048" 
d="M199 143q9 66 63.5 113t122.5 47q67 0 108.5 -45.5t32.5 -110.5q-9 -66 -63.5 -112.5t-122.5 -46.5q-66 0 -108 45t-33 110zM881 143q9 66 63.5 113t122.5 47q67 0 108.5 -45.5t32.5 -110.5q-9 -66 -63.5 -112.5t-122.5 -46.5q-66 0 -108 45t-33 110zM1563 143
q9 66 63.5 113t122.5 47q67 0 108.5 -45.5t32.5 -110.5q-9 -66 -63.5 -112.5t-122.5 -46.5q-66 0 -108 45t-33 110z" />
    <glyph glyph-name="perthousand" unicode="&#x2030;" horiz-adv-x="2390" 
d="M889 338q22 149 142 254.5t269 105.5q150 0 242 -105.5t70 -254.5q-20 -149 -142.5 -256t-271.5 -107t-239 106.5t-70 256.5zM1073 338q-11 -77 32.5 -127.5t119.5 -50.5t133.5 50.5t68.5 127.5q10 76 -33 126t-120 50t-134 -50t-67 -126zM1700 338q22 149 142 254.5
t269 105.5q150 0 242 -105.5t70 -254.5q-20 -149 -142.5 -256t-271.5 -107t-239 106.5t-70 256.5zM1884 338q-11 -77 32.5 -127.5t119.5 -50.5t133.5 50.5t68.5 127.5q10 76 -33 126t-120 50t-134 -50t-67 -126zM170 1114q22 149 142.5 255t269.5 106t241 -106t70 -255
q-20 -149 -141.5 -255.5t-270.5 -106.5t-240 106.5t-71 255.5zM354 1114q-11 -77 32.5 -127.5t119.5 -50.5q77 0 135 51t68 127t-32.5 126t-119.5 50t-135 -50t-68 -126zM276 12l1063 1504l160 -78l-1063 -1504z" />
    <glyph glyph-name="guilsinglleft" unicode="&#x2039;" horiz-adv-x="606" 
d="M647 862l-285 -354l187 -358l-170 -105l-246 463l375 459z" />
    <glyph glyph-name="guilsinglright" unicode="&#x203a;" horiz-adv-x="606" 
d="M100 150l287 354l-188 358l170 105l247 -463l-376 -459z" />
    <glyph glyph-name="fraction" unicode="&#x2044;" horiz-adv-x="342" 
d="M-338 12l1063 1504l160 -78l-1063 -1504z" />
    <glyph glyph-name="Euro" unicode="&#x20ac;" horiz-adv-x="1212" 
d="M1167 152q-64 -75 -181.5 -126t-256.5 -51q-119 0 -208.5 34t-145 98.5t-84.5 148t-35 190.5h-162l82 185h82q2 25 10 84q3 16 6 34t7 38.5t6 31.5h-135l90 191h106q96 223 271 344t397 121q84 0 165 -19t126 -49l-107 -211q-80 59 -219 59q-110 0 -204.5 -59
t-158.5 -186h508l-86 -191h-487q-18 -84 -23 -117q-1 -13 -4 -36.5t-4 -34.5h443l-84 -185h-357q30 -253 248 -253q155 0 264 112z" />
    <glyph glyph-name="afii61289" unicode="&#x2113;" horiz-adv-x="1089" 
d="M997 362l84 -94q-192 -284 -475 -284q-90 0 -156 28t-102.5 78t-52.5 111t-14 135l4 24q-109 -77 -129 -90l-45 123q18 14 88.5 65t105.5 79l74 532q19 137 63 240t104 163t128 89.5t143 29.5q145 0 205.5 -100.5t38.5 -257.5q-26 -180 -163 -359.5t-378 -377.5l-10 -74
q-14 -125 35 -190.5t139 -65.5q86 0 167 56.5t146 139.5zM602 1085l-53 -380q327 310 360 532q27 193 -106 193q-62 0 -118 -82t-83 -263z" />
    <glyph glyph-name="trademark" unicode="&#x2122;" horiz-adv-x="2048" 
d="M418 606l92 660h-250l27 184h708l-26 -184h-250l-92 -660h-209zM1069 606l119 844h291l123 -549l278 549h291l-119 -844h-209l76 549h-4l-283 -549h-143l-131 549h-4l-76 -549h-209z" />
    <glyph glyph-name="Omega" unicode="&#x2126;" horiz-adv-x="1554" 
d="M426 182v6q-106 103 -164 257t-31 346q20 140 87 265t166.5 215t231 142.5t273.5 52.5q119 0 218.5 -37.5t166.5 -102t110.5 -149t57.5 -181t0 -195.5q-27 -197 -130 -356t-238 -257v-6h311l-27 -182h-555l19 135q138 79 243 235t138 386q9 80 4.5 155.5t-31.5 142.5
t-67.5 117t-104.5 79.5t-143 29.5q-189 0 -329 -151.5t-173 -380.5q-30 -215 32.5 -378.5t176.5 -234.5l-19 -135h-557l27 182h307z" />
    <glyph glyph-name="estimated" unicode="&#x212e;" horiz-adv-x="2015" 
d="M1944 705h-1350q-10 0 -10 -11v-407q0 -26 18 -47q101 -104 232 -163t278 -59q157 0 296.5 66t240.5 182h118q-112 -133 -285.5 -211t-371.5 -78q-169 0 -323 59t-265 159t-177 239t-66 291q0 153 66 291.5t177 239t265 160t323 59.5q170 0 324.5 -59.5t266 -160
t177.5 -239t66 -291.5v-20zM1636 758v409q0 29 -18 50q-101 100 -231.5 156.5t-274.5 56.5q-145 0 -276 -58.5t-232 -161.5q-20 -20 -20 -51v-401q0 -4 3 -9.5t7 -5.5h1034q8 0 8 15z" />
    <glyph glyph-name="partialdiff" unicode="&#x2202;" horiz-adv-x="1216" 
d="M408 1341l-48 166q177 119 404 119q116 0 211.5 -50t163 -149t92 -246.5t-1.5 -342.5q-34 -248 -129 -439.5t-246 -303t-336 -111.5q-72 0 -133 20.5t-103 56.5t-73.5 83.5t-45.5 102t-20 112t4 112.5q23 159 104 282.5t195 188t240 64.5q67 0 124.5 -20.5t95 -52.5
t60 -60.5t33.5 -53.5h2q4 12 9.5 44.5t5.5 33.5q21 152 -10.5 276.5t-109.5 196.5t-187 72q-160 0 -301 -101zM567 170h2q85 0 164.5 69t133.5 170t83 216q-6 31 -23.5 64t-46.5 64.5t-74.5 51.5t-98.5 20q-119 0 -215.5 -105t-116.5 -253q-18 -127 35 -212t157 -85z" />
    <glyph glyph-name="Delta" unicode="&#x2206;" horiz-adv-x="1415" 
d="M59 0l19 137l704 1342h273l319 -1340l-20 -139h-1295zM324 182h806l-174 684q-8 49 -38.5 187.5t-36.5 187.5h-9q-15 -36 -78 -161.5t-87 -180.5z" />
    <glyph glyph-name="product" unicode="&#x220f;" horiz-adv-x="1740" 
d="M1688 1239h-228v-1438h-227v1438h-522v-1438h-228v1438h-227v205h1432v-205z" />
    <glyph glyph-name="summation" unicode="&#x2211;" horiz-adv-x="1402" 
d="M1364 -199h-1112v144l543 676l-521 665v158h1055v-195h-741v-8l469 -586l-512 -639v-6h819v-209z" />
    <glyph glyph-name="minus" unicode="&#x2212;" horiz-adv-x="1363" 
d="M229 725h1110l-30 -209h-1110z" />
    <glyph glyph-name="uni2215" unicode="&#x2215;" horiz-adv-x="342" 
d="M-338 12l1063 1504l160 -78l-1063 -1504z" />
    <glyph glyph-name="uni2219" unicode="&#x2219;" horiz-adv-x="606" 
d="M223 596q9 66 64 113t123 47q67 0 108.5 -45.5t32.5 -110.5q-9 -66 -63.5 -113t-122.5 -47q-66 0 -108.5 45.5t-33.5 110.5z" />
    <glyph glyph-name="radical" unicode="&#x221a;" horiz-adv-x="1462" 
d="M1481 1724l-484 -2023h-190l-332 926l-158 -62l-41 127l338 135l246 -708q6 -27 21 -83.5t20 -80.5l2 -2q4 22 15.5 81t17.5 93l381 1597h164z" />
    <glyph glyph-name="infinity" unicode="&#x221e;" horiz-adv-x="1779" 
d="M1677 598v-2q0 -159 -99 -256.5t-235 -97.5q-97 0 -187 56.5t-195 188.5q-47 -57 -86 -95.5t-88.5 -75.5t-105.5 -55.5t-118 -18.5q-134 0 -230.5 98.5t-96.5 247.5q0 153 98.5 252.5t247.5 99.5q109 0 199 -62.5t186 -179.5q90 100 127 133q123 109 262 109
q141 -2 231 -96t90 -246zM582 371h2q42 0 82 16t79 49t64 58.5t65 70.5q10 11 15 17q-38 49 -55 70.5t-53.5 59.5t-63 55t-66 31.5t-80.5 14.5q-91 0 -145.5 -64.5t-54.5 -162.5q0 -90 60 -152.5t151 -62.5zM1343 813h-2q-32 0 -65.5 -12t-58 -27t-55 -42.5t-47 -46
t-44.5 -50t-37 -41.5q71 -85 118 -129.5t95.5 -69t102.5 -24.5q88 0 141 67.5t53 149.5q0 101 -56.5 163t-144.5 62z" />
    <glyph glyph-name="integral" unicode="&#x222b;" horiz-adv-x="1011" 
d="M977 1751l-27 -154q-38 19 -78 19q-71 0 -108 -51q-35 -43 -49.5 -128t-14.5 -227q0 -163 15.5 -495t15.5 -514q0 -275 -84 -414q-38 -68 -105 -101.5t-145 -33.5q-89 0 -157 35l32 159q55 -22 97 -22q61 0 96 43q65 85 65 334q0 184 -16 522.5t-16 507.5
q0 177 28.5 283.5t94.5 175.5q85 88 231 88q73 0 125 -27z" />
    <glyph glyph-name="approxequal" unicode="&#x2248;" horiz-adv-x="1323" 
d="M1149 926l84 -78q-52 -97 -124.5 -153t-160.5 -56q-62 0 -113.5 19.5t-132.5 66.5q-41 24 -63.5 36t-58 23t-68.5 11q-66 0 -111.5 -39t-97.5 -115l-86 78q51 95 132 152t175 57q24 0 49.5 -4.5t42.5 -9t42 -15.5t34.5 -16t34.5 -19t29 -16q6 -4 30.5 -18t30.5 -17
t24.5 -13t27 -12.5t24 -7.5t29 -6.5t28.5 -1.5q60 0 105.5 38t93.5 116zM1149 543l84 -78q-114 -209 -287 -209q-60 0 -111 19.5t-133 66.5q-44 26 -65.5 37.5t-56.5 23t-68 11.5q-35 0 -65 -12t-56.5 -37.5t-44 -47.5t-43.5 -59l-86 78q51 95 132.5 153t174.5 58
q25 0 50 -4t43 -9t41.5 -15.5t34.5 -16.5t34 -19t29 -16l37.5 -22.5t39.5 -22.5t34 -16t41.5 -13.5t41.5 -3.5q60 0 104 37t95 117z" />
    <glyph glyph-name="notequal" unicode="&#x2260;" horiz-adv-x="1349" 
d="M1022 1065l-88 -195h311v-135h-364l-133 -297h497v-135h-553l-110 -246l-109 47l92 199h-303v135h359l131 297h-490v135h543l108 242z" />
    <glyph glyph-name="lessequal" unicode="&#x2264;" horiz-adv-x="1376" 
d="M1266 203l-967 471v145l965 471v-157l-826 -383v-5l828 -385v-157zM1272 -16h-983v137h983v-137z" />
    <glyph glyph-name="greaterequal" unicode="&#x2265;" horiz-adv-x="1374" 
d="M301 1290l967 -471v-145l-967 -471v157l825 383v7l-825 383v157zM1268 -16h-977v137h977v-137z" />
    <glyph glyph-name="lozenge" unicode="&#x25ca;" horiz-adv-x="1464" 
d="M1356 721l-432 -823h-183l-424 823l431 823h184zM1151 715l-272 532q-28 69 -39 113h-6q-15 -54 -41 -113l-273 -522l275 -537q26 -67 36 -108h9q19 65 39 106z" />
    </font>
</defs>
</svg>
