<?xml version="1.0" standalone="no"?>
<!DOCTYPE svg PUBLIC "-//W3C//DTD SVG 1.1//EN" "http://www.w3.org/Graphics/SVG/1.1/DTD/svg11.dtd" >
<svg xmlns="http://www.w3.org/2000/svg" xmlns:xlink="http://www.w3.org/1999/xlink" version="1.1">
<metadata>
Created by FontForge 20201107 at Wed Jul 17 16:26:12 2024
 By 
Copyright (c) 1989, 1995, 2002 Adobe Systems Incorporated.  All Rights Reserved. (c) 1981, 1995, 2002 Heidelberger Druckmaschinen AG. All rights reserved.
</metadata>
<defs>
<font id="AvenirLTStd-Roman" horiz-adv-x="1138" >
  <font-face 
    font-family="Avenir LT Std 55 Roman"
    font-weight="400"
    font-stretch="normal"
    units-per-em="2048"
    panose-1="2 11 5 3 2 2 3 2 2 4"
    ascent="1638"
    descent="-410"
    x-height="958"
    cap-height="1450"
    bbox="-340 -512 2048 1901"
    underline-thickness="102"
    underline-position="-204"
    unicode-range="U+0020-FB02"
  />
<missing-glyph horiz-adv-x="1024" 
d="M0 0v1434h1024v-1434h-1024zM512 809l348 522h-696zM573 717l349 -522v1044zM164 102h696l-348 523zM102 1239v-1044l349 522z" />
    <glyph glyph-name="fi" unicode="fi" horiz-adv-x="1099" 
d="M627 958v-135h-234v-823h-160v823h-208v135h208v216q0 91 17.5 161t55.5 125t105.5 84t161.5 29q75 0 123 -25l-22 -143q-58 20 -109 20q-35 0 -62 -7.5t-45 -19.5t-30.5 -34t-19 -42t-10 -54t-4.5 -60t-1 -69v-181h234zM774 0v958h160v-958h-160zM737 1333q0 48 34 82.5
t83 34.5t83 -34.5t34 -82.5q0 -51 -33 -83.5t-84 -32.5t-84 32.5t-33 83.5z" />
    <glyph glyph-name="fl" unicode="fl" horiz-adv-x="1099" 
d="M233 0v823h-208v135h208v216q0 91 17.5 161t55.5 125t105.5 84t161.5 29q75 0 123 -25l-22 -143q-58 20 -109 20q-35 0 -62 -7.5t-45 -19.5t-30.5 -34t-19 -42t-10 -54t-4.5 -60t-1 -69v-181h234v-135h-234v-823h-160zM774 0v1548h160v-1548h-160z" />
    <glyph glyph-name=".notdef" horiz-adv-x="1024" 
d="M0 0v1434h1024v-1434h-1024zM512 809l348 522h-696zM573 717l349 -522v1044zM164 102h696l-348 523zM102 1239v-1044l349 522z" />
    <glyph glyph-name=".null" horiz-adv-x="0" 
 />
    <glyph glyph-name="nonmarkingreturn" horiz-adv-x="682" 
 />
    <glyph glyph-name="space" unicode=" " horiz-adv-x="569" 
 />
    <glyph glyph-name="exclam" unicode="!" horiz-adv-x="569" 
d="M371 1450v-1044h-172v1044h172zM285 233q51 0 87 -35.5t36 -86.5q0 -50 -37.5 -86.5t-85.5 -36.5t-85.5 36.5t-37.5 86.5q0 51 36 86.5t87 35.5z" />
    <glyph glyph-name="quotedbl" unicode="&#x22;" horiz-adv-x="1062" 
d="M307 958v492h148v-492h-148zM608 958v492h148v-492h-148z" />
    <glyph glyph-name="numbersign" unicode="#" 
d="M201 0l61 436h-201v135h222l41 312h-201v135h221l62 432h137l-62 -432h258l62 432h137l-61 -432h200v-135h-219l-43 -312h201v-135h-221l-62 -436h-137l61 436h-258l-61 -436h-137zM678 571l43 312h-258l-43 -312h258z" />
    <glyph glyph-name="dollar" unicode="$" 
d="M524 -170v145q-136 0 -250.5 46.5t-187.5 144.5l143 125q44 -68 125 -110.5t170 -45.5v520q-87 23 -155 55t-127 80.5t-91 119.5t-32 161q0 166 118.5 278t286.5 126v135h99v-135q114 0 220.5 -42.5t176.5 -123.5l-135 -123q-46 62 -114.5 95.5t-147.5 33.5v-510
q57 -18 94.5 -31t87 -35t81.5 -43t66.5 -52.5t54.5 -67t33 -83.5t13 -104q0 -177 -124 -290t-306 -124v-145h-99zM524 831v484q-101 -19 -161 -84.5t-60 -161.5q0 -41 12 -74.5t29.5 -56t49.5 -43.5t59 -34t71 -30zM623 629v-494q106 12 175.5 80.5t69.5 165.5
q0 54 -19.5 96t-57 70.5t-76.5 46.5t-92 35z" />
    <glyph glyph-name="percent" unicode="%" horiz-adv-x="1705" 
d="M78 1116q0 151 103.5 255t254.5 104t255 -104t104 -255t-104 -254.5t-255 -103.5t-254.5 103.5t-103.5 254.5zM225 1116q0 -86 63 -148.5t148 -62.5t148 62.5t63 148.5t-63 148.5t-148 62.5t-148 -62.5t-63 -148.5zM911 334q0 151 104 254.5t255 103.5t254.5 -103.5
t103.5 -254.5t-103.5 -255t-254.5 -104t-255 104t-104 255zM1059 334q0 -86 63 -148.5t148 -62.5t148 62.5t63 148.5t-63 148.5t-148 62.5t-148 -62.5t-63 -148.5zM348 0l909 1516l113 -66l-909 -1516z" />
    <glyph glyph-name="ampersand" unicode="&#x26;" horiz-adv-x="1478" 
d="M1214 0l-196 209q-94 -117 -195 -175.5t-239 -58.5q-125 0 -228.5 48.5t-168 144t-64.5 221.5q0 144 88.5 249t232.5 171q-84 85 -129 163t-45 173q0 155 108.5 243.5t266.5 88.5q156 0 259.5 -84.5t103.5 -237.5q0 -65 -26.5 -122.5t-74.5 -103t-96 -78t-111 -65.5
l308 -325l194 325h195l-279 -446l332 -340h-236zM543 944l51 -53q112 61 153 95q89 74 89 173q0 77 -53.5 123.5t-131.5 46.5q-89 0 -149 -53.5t-60 -140.5q0 -53 27 -98t74 -93zM913 324l-362 381q-44 -24 -75 -43.5t-67.5 -49.5t-59.5 -60t-38.5 -71t-15.5 -86
q0 -115 83.5 -193.5t199.5 -78.5q54 0 101 15t89.5 47t73 61.5t71.5 77.5z" />
    <glyph glyph-name="quotesingle" unicode="'" horiz-adv-x="569" 
d="M211 958v492h147v-492h-147z" />
    <glyph glyph-name="parenleft" unicode="(" horiz-adv-x="569" 
d="M522 -242l-110 -77q-145 199 -222 435.5t-77 473.5q0 248 78 481t221 428l110 -82q-129 -179 -195.5 -390t-66.5 -437q0 -239 62 -427.5t200 -404.5z" />
    <glyph glyph-name="parenright" unicode=")" horiz-adv-x="569" 
d="M47 1421l111 78q145 -199 222 -435.5t77 -473.5q0 -248 -78 -481t-221 -428l-111 81q129 178 195.5 390t66.5 438q0 239 -62 426.5t-200 404.5z" />
    <glyph glyph-name="asterisk" unicode="*" horiz-adv-x="909" 
d="M516 1450v-305l291 98l39 -119l-289 -98l182 -244l-100 -77l-184 251l-179 -251l-102 77l178 244l-289 98l39 119l291 -98v305h123z" />
    <glyph glyph-name="plus" unicode="+" horiz-adv-x="1363" 
d="M147 553v135h467v467h136v-467h467v-135h-467v-467h-136v467h-467z" />
    <glyph glyph-name="comma" unicode="," horiz-adv-x="569" 
d="M432 209l-168 -492h-158l140 492h186z" />
    <glyph glyph-name="hyphen" unicode="-" horiz-adv-x="681" 
d="M90 418v147h502v-147h-502z" />
    <glyph glyph-name="period" unicode="." horiz-adv-x="569" 
d="M285 233q51 0 87 -35.5t36 -86.5q0 -50 -37.5 -86.5t-85.5 -36.5t-85.5 36.5t-37.5 86.5q0 51 36 86.5t87 35.5z" />
    <glyph glyph-name="slash" unicode="/" horiz-adv-x="757" 
d="M752 1487l-617 -1575l-129 51l617 1573z" />
    <glyph glyph-name="zero" unicode="0" 
d="M78 725q0 75 6 146t21.5 147t40 141t63 124.5t88.5 101t119.5 66t152.5 24.5q96 0 174.5 -32t131 -89.5t90 -129t58 -159t29.5 -170t9 -170.5t-9 -170.5t-29.5 -170t-58 -159t-90 -129t-131 -89.5t-174.5 -32q-83 0 -152.5 24.5t-119.5 66t-88.5 101t-63 124.5t-40 141
t-21.5 147t-6 146zM250 725q0 -52 2.5 -100.5t10.5 -111.5t22 -115t38.5 -104.5t57 -89t81 -59t107.5 -22.5t108 22.5t81.5 59t57 89t38 104.5t22 114.5t11 111.5t2.5 101t-2.5 101t-11 111.5t-22 114.5t-38 104.5t-57 89t-81.5 59t-108 22.5t-107.5 -22.5t-81 -59t-57 -89
t-38.5 -104.5t-22 -115t-10.5 -111.5t-2.5 -100.5z" />
    <glyph glyph-name="one" unicode="1" 
d="M737 1450v-1450h-172v1229h-4l-260 -219l-102 125l389 315h149z" />
    <glyph glyph-name="two" unicode="2" 
d="M102 0v197l547 532q115 111 160 182.5t45 169.5q0 111 -76 178.5t-188 67.5q-108 0 -181.5 -63t-93.5 -168l-186 16q29 174 152 268.5t303 94.5q122 0 221 -43.5t160 -134.5t61 -216q0 -42 -5.5 -81t-19 -75.5t-26 -65.5t-37.5 -62.5t-41.5 -55t-49 -55t-50 -50.5
t-54.5 -52l-446 -420v-4h739v-160h-934z" />
    <glyph glyph-name="three" unicode="3" 
d="M418 688v148h53q330 0 330 251q0 109 -69 174.5t-179 65.5q-91 0 -159.5 -41.5t-106.5 -120.5l-166 64q51 119 164 182.5t256 63.5q183 0 307.5 -100t124.5 -279q0 -113 -69.5 -205.5t-178.5 -126.5v-4q136 -23 216.5 -124.5t80.5 -240.5q0 -133 -66.5 -230
t-173.5 -143.5t-239 -46.5q-171 0 -292 75t-175 231l174 57q37 -116 104.5 -165.5t188.5 -49.5q125 0 210 80.5t85 204.5q0 62 -21.5 111t-56.5 80t-83.5 51.5t-99 29t-106.5 8.5h-53z" />
    <glyph glyph-name="four" unicode="4" 
d="M858 1450v-958h209v-160h-209v-332h-172v332h-614v190l575 928h211zM686 492v757h-4l-463 -757h467z" />
    <glyph glyph-name="five" unicode="5" 
d="M971 1450v-160h-592l-6 -391q71 35 186 35q207 0 335 -135t128 -342q0 -214 -141.5 -348t-356.5 -134q-299 0 -428 265l172 65q38 -83 109 -132.5t162 -49.5q133 0 222 93t89 241q0 155 -100 242t-258 87q-143 0 -295 -90l14 754h760z" />
    <glyph glyph-name="six" unicode="6" 
d="M807 1450l-389 -604l4 -4q74 43 194 43q191 0 315 -127t124 -328q0 -138 -64.5 -242.5t-174 -158.5t-247.5 -54q-137 0 -246.5 54t-174 158.5t-64.5 242.5q0 115 34.5 206.5t102.5 201.5l385 612h201zM569 737q-134 0 -223.5 -84.5t-89.5 -222.5t89.5 -222.5t223.5 -84.5
t224 84.5t90 222.5t-90 222.5t-224 84.5z" />
    <glyph glyph-name="seven" unicode="7" 
d="M983 1450v-160l-580 -1290h-194l590 1290h-701v160h885z" />
    <glyph glyph-name="eight" unicode="8" 
d="M156 1096q0 168 118 273.5t295 105.5t295.5 -105.5t118.5 -273.5q0 -107 -65.5 -199.5t-172.5 -120.5v-4q129 -28 208 -131.5t79 -241.5q0 -193 -132 -308.5t-331 -115.5t-331 115.5t-132 308.5q0 138 79 241.5t208 131.5v4q-107 28 -172 120.5t-65 199.5zM328 1087
q0 -104 67.5 -171.5t173.5 -67.5q107 0 174.5 68t67.5 171q0 104 -68 172t-174 68t-173.5 -68t-67.5 -172zM279 412q0 -126 83.5 -207.5t206.5 -81.5t207 81.5t84 207.5t-84 207t-207 81t-206.5 -81t-83.5 -207z" />
    <glyph glyph-name="nine" unicode="9" 
d="M332 0l389 604l-4 4q-74 -43 -195 -43q-190 0 -314 127t-124 328q0 138 64.5 242.5t174 158.5t246.5 54q138 0 247.5 -54t174 -158.5t64.5 -242.5q0 -115 -34.5 -206.5t-102.5 -201.5l-386 -612h-200zM569 713q134 0 224 84.5t90 222.5t-90 222.5t-224 84.5t-223.5 -84.5
t-89.5 -222.5t89.5 -222.5t223.5 -84.5z" />
    <glyph glyph-name="colon" unicode=":" horiz-adv-x="569" 
d="M285 983q51 0 87 -36t36 -87q0 -50 -37.5 -86.5t-85.5 -36.5t-85.5 36.5t-37.5 86.5q0 51 36 87t87 36zM285 233q51 0 87 -35.5t36 -86.5q0 -50 -37.5 -86.5t-85.5 -36.5t-85.5 36.5t-37.5 86.5q0 51 36 86.5t87 35.5z" />
    <glyph glyph-name="semicolon" unicode=";" horiz-adv-x="569" 
d="M432 209l-168 -492h-158l140 492h186zM285 983q51 0 87 -36t36 -87q0 -50 -37.5 -86.5t-85.5 -36.5t-85.5 36.5t-37.5 86.5q0 51 36 87t87 36z" />
    <glyph glyph-name="less" unicode="&#x3c;" horiz-adv-x="1363" 
d="M1217 1155v-135l-904 -399l904 -400v-135l-1070 475v119z" />
    <glyph glyph-name="equal" unicode="=" horiz-adv-x="1363" 
d="M147 713v135h1070v-135h-1070zM147 393v135h1070v-135h-1070z" />
    <glyph glyph-name="greater" unicode="&#x3e;" horiz-adv-x="1363" 
d="M147 86v135l904 400l-904 399v135l1070 -475v-119z" />
    <glyph glyph-name="question" unicode="?" horiz-adv-x="987" 
d="M387 406v129q0 46 6 80t12 55t29 51t37 44.5t57 57.5l35.5 35.5t37.5 38.5t32 36t31 41.5t21.5 41t17 49t4.5 51.5q0 100 -59 161.5t-159 61.5q-101 0 -167.5 -61t-81.5 -162l-185 21q27 164 146.5 257t290.5 93q174 0 286.5 -97t112.5 -268q0 -44 -7.5 -82.5t-27 -75.5
t-35 -62.5t-50.5 -62.5t-52.5 -54t-61.5 -58q-64 -61 -81 -100t-17 -127v-94h-172zM473 233q51 0 87 -35.5t36 -86.5q0 -50 -37.5 -86.5t-85.5 -36.5t-85.5 36.5t-37.5 86.5q0 51 36 86.5t87 35.5z" />
    <glyph glyph-name="at" unicode="@" horiz-adv-x="1638" 
d="M537 600q0 -85 50.5 -141t127.5 -56q84 0 159.5 74.5t116.5 174.5t41 186q0 77 -50.5 134.5t-115.5 57.5q-69 0 -132 -42t-105 -106.5t-67 -139.5t-25 -142zM1268 1126l-172 -579q-19 -63 -19 -103q0 -22 11.5 -31.5t37.5 -9.5q65 0 131.5 63.5t111 168.5t44.5 215
q0 155 -80.5 277.5t-206.5 185.5t-270 63q-173 0 -319 -89t-229 -238.5t-83 -323.5q0 -135 51.5 -256.5t137 -207.5t201.5 -136.5t241 -50.5q152 0 292.5 67.5t223.5 180.5h129q-98 -167 -271.5 -263t-373.5 -96q-158 0 -300.5 60t-244.5 161.5t-161.5 243t-59.5 297.5
q0 209 103 384.5t279 276.5t384 101q139 0 266 -47t221 -128.5t149.5 -199.5t55.5 -252q0 -102 -31 -197t-82 -165t-114 -123t-128.5 -80t-123.5 -27q-55 0 -91.5 34.5t-39.5 100.5h-4q-55 -65 -114 -100t-142 -35q-128 0 -208.5 91t-80.5 227q0 107 34.5 210.5t95 185.5
t151.5 132.5t196 50.5q76 0 136 -40.5t92 -127.5h4l37 129h133z" />
    <glyph glyph-name="A" unicode="A" horiz-adv-x="1441" 
d="M12 0l639 1450h162l617 -1450h-201l-148 356h-725l-149 -356h-195zM1016 516l-287 713h-4l-301 -713h592z" />
    <glyph glyph-name="B" unicode="B" horiz-adv-x="1290" 
d="M180 0v1450h443q75 0 142.5 -11t130.5 -38t108.5 -66.5t72.5 -101.5t27 -139q0 -124 -67 -208t-187 -120v-4q140 -12 234 -113t94 -243q0 -92 -33.5 -164t-88 -117t-130 -74t-152 -40t-162.5 -11h-432zM352 1290v-454h238q54 0 97 5t88.5 20t75.5 40t49.5 68.5
t19.5 101.5q0 219 -312 219h-256zM352 676v-516h291q66 0 126 14t111.5 42.5t82 79t30.5 116.5q0 59 -19.5 105t-52 75.5t-78 48.5t-93.5 27t-103 8h-295z" />
    <glyph glyph-name="C" unicode="C" horiz-adv-x="1441" 
d="M1346 1260l-150 -109q-63 86 -159 131t-203 45q-157 0 -285.5 -84.5t-198 -222t-69.5 -295.5q0 -167 69.5 -304t196.5 -217.5t287 -80.5q261 0 419 203l129 -109q-188 -254 -548 -254q-206 0 -374.5 98t-266 273t-97.5 391q0 211 94 385t263.5 275.5t380.5 101.5
q156 0 289.5 -56t222.5 -171z" />
    <glyph glyph-name="D" unicode="D" horiz-adv-x="1517" 
d="M154 0v1450h557q90 0 183.5 -23.5t189 -78.5t169.5 -136t121 -207t47 -280t-47 -280t-121 -207t-169.5 -136t-189 -78.5t-183.5 -23.5h-557zM326 1290v-1130h327q127 0 231.5 33t184.5 100t124 177t44 255t-44 255t-124 177t-184.5 100t-231.5 33h-327z" />
    <glyph glyph-name="E" unicode="E" horiz-adv-x="1214" 
d="M180 0v1450h912v-160h-740v-454h690v-160h-690v-516h776v-160h-948z" />
    <glyph glyph-name="F" unicode="F" 
d="M180 0v1450h899v-160h-727v-479h676v-160h-676v-651h-172z" />
    <glyph glyph-name="G" unicode="G" horiz-adv-x="1593" 
d="M1413 811v-713q-244 -135 -543 -135q-224 0 -400 95t-275 269t-99 398q0 168 61 311.5t166.5 241.5t248.5 153.5t305 55.5q324 0 512 -191l-129 -135q-73 79 -178.5 122.5t-217.5 43.5q-164 0 -297.5 -76.5t-209.5 -214.5t-76 -311q0 -261 167.5 -431.5t432.5 -170.5
q89 0 185 22.5t175 61.5v444h-334v160h506z" />
    <glyph glyph-name="H" unicode="H" horiz-adv-x="1478" 
d="M180 0v1450h172v-614h774v614h172v-1450h-172v676h-774v-676h-172z" />
    <glyph glyph-name="I" unicode="I" horiz-adv-x="532" 
d="M180 0v1450h172v-1450h-172z" />
    <glyph glyph-name="J" unicode="J" horiz-adv-x="987" 
d="M807 1450v-1075q0 -61 -13 -118t-44 -111t-77.5 -94t-118.5 -64.5t-161 -24.5q-157 0 -258.5 79t-128.5 232l172 35q18 -88 73 -137t144 -49q240 0 240 311v1016h172z" />
    <glyph glyph-name="K" unicode="K" horiz-adv-x="1290" 
d="M180 0v1450h172v-627h25l659 627h248l-717 -662l752 -788h-252l-690 737h-25v-737h-172z" />
    <glyph glyph-name="L" unicode="L" horiz-adv-x="1024" 
d="M180 0v1450h172v-1290h664v-160h-836z" />
    <glyph glyph-name="M" unicode="M" horiz-adv-x="1857" 
d="M180 0v1450h256l492 -1137h4l495 1137h250v-1450h-172v1217h-4l-520 -1217h-104l-521 1217h-4v-1217h-172z" />
    <glyph glyph-name="N" unicode="N" horiz-adv-x="1593" 
d="M180 0v1450h217l840 -1204h4v1204h172v-1450h-217l-840 1204h-4v-1204h-172z" />
    <glyph glyph-name="O" unicode="O" horiz-adv-x="1708" 
d="M854 -37q-162 0 -303.5 58t-241 158.5t-156.5 242t-57 303.5t57 303.5t156.5 242t241 158.5t303.5 58t303.5 -58t241 -158.5t156.5 -242t57 -303.5t-57 -303.5t-156.5 -242t-241 -158.5t-303.5 -58zM854 123q166 0 298 80.5t203.5 218t71.5 303.5t-71.5 303.5t-203.5 218
t-298 80.5t-298 -80.5t-203.5 -218t-71.5 -303.5t71.5 -303.5t203.5 -218t298 -80.5z" />
    <glyph glyph-name="P" unicode="P" horiz-adv-x="1214" 
d="M180 0v1450h430q83 0 155 -12t138.5 -41t113 -73t74 -113.5t27.5 -157.5q0 -91 -30 -163t-77.5 -116t-112 -72.5t-127 -39.5t-128.5 -11h-291v-651h-172zM352 1290v-479h291q134 0 212.5 61t78.5 179t-78.5 178.5t-212.5 60.5h-291z" />
    <glyph glyph-name="Q" unicode="Q" horiz-adv-x="1708" 
d="M1683 147v-147h-841q-209 0 -380 97.5t-268.5 268t-97.5 377.5t97.5 377.5t268.5 268.5t380 98t380 -98t268 -268.5t97 -377.5q0 -123 -42 -241t-123 -211.5t-187 -138.5v-5h448zM281 743q0 -162 73 -295.5t202 -210.5t286 -77t286 77t202 210.5t73 295.5
q0 161 -71.5 294.5t-200.5 211.5t-289 78t-289 -78t-200.5 -211.5t-71.5 -294.5z" />
    <glyph glyph-name="R" unicode="R" horiz-adv-x="1251" 
d="M180 0v1450h371q67 0 121 -3t116 -13.5t109 -28t92 -47.5t74 -71t47 -101t18 -135q0 -157 -96 -256.5t-266 -126.5l412 -668h-211l-394 651h-221v-651h-172zM352 1290v-479h154q65 0 100 1.5t96 7.5t96 21.5t73 40.5t55.5 68t17.5 101q0 60 -21 104.5t-53 70t-80.5 40.5
t-93.5 19.5t-102 4.5h-242z" />
    <glyph glyph-name="S" unicode="S" 
d="M1010 1317l-142 -123q-41 66 -111.5 99.5t-152.5 33.5q-80 0 -148 -24t-114.5 -81t-46.5 -139q0 -99 65 -154.5t240 -111.5q46 -15 74.5 -24.5t70.5 -26t68 -30t60 -34.5t54.5 -42t43 -50.5t35 -61.5t20.5 -73t8 -88q0 -105 -42.5 -187.5t-114.5 -133.5t-162 -77
t-191 -26q-137 0 -257 49t-189 152l147 121q44 -77 128.5 -119.5t181.5 -42.5q77 0 147 27.5t119 86.5t49 138q0 50 -14.5 87.5t-37.5 62.5t-70.5 49t-93.5 40.5t-126 43.5q-24 8 -37 12q-67 22 -116.5 44.5t-98 56t-78.5 73.5t-48.5 97t-18.5 128q0 101 41 182.5t110.5 132
t157 77t184.5 26.5q262 0 406 -170z" />
    <glyph glyph-name="T" unicode="T" horiz-adv-x="1175" 
d="M1153 1450v-160h-479v-1290h-172v1290h-479v160h1130z" />
    <glyph glyph-name="U" unicode="U" horiz-adv-x="1441" 
d="M1268 1450v-897q0 -97 -18 -182.5t-60 -161t-104 -129.5t-155.5 -85.5t-209.5 -31.5t-209.5 31.5t-155.5 85.5t-104 129.5t-60 161t-18 182.5v897h172v-872q0 -93 18.5 -170.5t60 -143.5t117 -103.5t179.5 -37.5t179.5 37.5t117 103.5t60 143.5t18.5 170.5v872h172z" />
    <glyph glyph-name="V" unicode="V" horiz-adv-x="1251" 
d="M537 0l-555 1450h194l447 -1192h4l460 1192h183l-568 -1450h-165z" />
    <glyph glyph-name="W" unicode="W" horiz-adv-x="1972" 
d="M436 0l-424 1450h191l329 -1204h5l356 1204h192l355 -1204h4l336 1204h180l-426 -1450h-186l-359 1229h-4l-360 -1229h-189z" />
    <glyph glyph-name="X" unicode="X" horiz-adv-x="1290" 
d="M-6 0l528 764l-487 686h221l391 -567l387 567h215l-487 -686l534 -764h-227l-430 643l-432 -643h-213z" />
    <glyph glyph-name="Y" unicode="Y" horiz-adv-x="1216" 
d="M522 0v625l-540 825h219l407 -655l420 655h207l-541 -825v-625h-172z" />
    <glyph glyph-name="Z" unicode="Z" horiz-adv-x="1175" 
d="M59 0v154l838 1136h-825v160h1034v-147l-838 -1143h848v-160h-1057z" />
    <glyph glyph-name="bracketleft" unicode="[" horiz-adv-x="530" 
d="M395 1499v-123h-190v-1573h190v-122h-338v1818h338z" />
    <glyph glyph-name="backslash" unicode="\" horiz-adv-x="757" 
d="M623 -88l-617 1575l129 49l617 -1573z" />
    <glyph glyph-name="bracketright" unicode="]" horiz-adv-x="530" 
d="M135 1376v123h338v-1818h-338v122h191v1573h-191z" />
    <glyph glyph-name="asciicircum" unicode="^" horiz-adv-x="1363" 
d="M164 563l457 887h122l457 -887h-151l-367 715l-367 -715h-151z" />
    <glyph glyph-name="underscore" unicode="_" horiz-adv-x="1024" 
d="M0 -256v102h1024v-102h-1024z" />
    <glyph glyph-name="grave" unicode="`" horiz-adv-x="491" 
d="M174 1450l213 -295h-145l-293 295h225z" />
    <glyph glyph-name="a" unicode="a" horiz-adv-x="1062" 
d="M240 731l-101 105q71 73 172 110t209 37q209 0 305.5 -100t96.5 -305v-412q0 -80 14 -166h-154q-10 43 -10 143h-4q-50 -77 -130.5 -122.5t-184.5 -45.5q-153 0 -255 75.5t-102 209.5q0 66 22 118.5t56 87t86.5 59.5t102 38.5t115.5 21t113.5 9.5t108.5 2h62v29
q0 103 -62 157t-176 54q-79 0 -153.5 -27t-130.5 -78zM762 461h-160q-158 0 -246 -45.5t-88 -139.5q0 -86 57 -125.5t154 -39.5q132 0 206 82t77 206v62z" />
    <glyph glyph-name="b" unicode="b" horiz-adv-x="1251" 
d="M143 0v1548h160v-729h4q141 164 344 164q224 0 364 -142t140 -362q0 -214 -138.5 -359t-340.5 -145q-125 0 -224 55t-145 140h-4v-170h-160zM303 479q0 -154 93.5 -255t246.5 -101t246.5 101t93.5 255t-93.5 255.5t-246.5 101.5t-246.5 -101.5t-93.5 -255.5z" />
    <glyph glyph-name="c" unicode="c" horiz-adv-x="987" 
d="M961 831l-127 -112q-97 117 -242 117q-155 0 -239.5 -101t-84.5 -256q0 -151 90 -253.5t234 -102.5q158 0 244 119l118 -113q-134 -154 -362 -154q-222 0 -359 141t-137 363q0 220 138 362t358 142q229 0 369 -152z" />
    <glyph glyph-name="d" unicode="d" horiz-adv-x="1251" 
d="M948 0v170h-4q-46 -85 -145 -140t-224 -55q-202 0 -340.5 145t-138.5 359q0 220 140 362t364 142q203 0 344 -164h4v729h160v-1548h-160zM948 479q0 154 -93.5 255.5t-246.5 101.5t-246.5 -101.5t-93.5 -255.5t93.5 -255t246.5 -101t246.5 101t93.5 255z" />
    <glyph glyph-name="e" unicode="e" 
d="M887 268l121 -94q-83 -106 -186 -152.5t-240 -46.5q-220 0 -353 144.5t-133 359.5q0 222 139.5 363t352.5 141q206 0 330 -134t124 -368v-51h-774q9 -128 97.5 -217.5t216.5 -89.5q101 0 174 35.5t131 109.5zM268 565h602q-5 123 -81.5 197t-206.5 74q-131 0 -215 -74
t-99 -197z" />
    <glyph glyph-name="f" unicode="f" horiz-adv-x="645" 
d="M233 0v823h-208v135h208v216q0 91 17.5 161t55.5 125t105.5 84t161.5 29q75 0 123 -25l-22 -143q-58 20 -109 20q-35 0 -62 -7.5t-45 -19.5t-30.5 -34t-19 -42t-10 -54t-4.5 -60t-1 -69v-181h234v-135h-234v-823h-160z" />
    <glyph glyph-name="g" unicode="g" horiz-adv-x="1251" 
d="M1108 958v-915q0 -259 -135 -397t-387 -138q-144 0 -258 43t-213 140l114 131q152 -166 357 -166q362 0 362 387v123h-4q-54 -88 -145.5 -133t-192.5 -45q-225 0 -367.5 139t-142.5 352q0 233 139.5 368.5t370.5 135.5q104 0 198.5 -48.5t139.5 -139.5h4v163h160z
M268 479q0 -145 99 -244.5t239 -99.5q158 0 250 101.5t92 246.5q0 156 -95 254.5t-247 98.5q-149 0 -243.5 -102t-94.5 -255z" />
    <glyph glyph-name="h" unicode="h" 
d="M152 0v1548h159v-723h4q36 63 119.5 110.5t188.5 47.5q182 0 273 -105t91 -286v-592h-160v575q0 124 -54.5 192.5t-164.5 68.5q-150 0 -223.5 -98.5t-73.5 -270.5v-467h-159z" />
    <glyph glyph-name="i" unicode="i" horiz-adv-x="491" 
d="M166 0v958h160v-958h-160zM129 1333q0 48 34 82.5t83 34.5t82.5 -34.5t33.5 -82.5q0 -51 -32.5 -83.5t-83.5 -32.5t-84 32.5t-33 83.5z" />
    <glyph glyph-name="j" unicode="j" horiz-adv-x="491" 
d="M326 958v-1173q0 -33 -6.5 -66.5t-25.5 -73t-49.5 -68.5t-83 -49t-120.5 -20q-65 0 -111 21l19 139q41 -12 78 -12q44 0 72.5 15.5t42.5 45.5t19 62.5t5 79.5v1099h160zM129 1333q0 48 34 82.5t83 34.5t82.5 -34.5t33.5 -82.5q0 -51 -32.5 -83.5t-83.5 -32.5t-84 32.5
t-33 83.5z" />
    <glyph glyph-name="k" unicode="k" horiz-adv-x="1024" 
d="M152 0v1548h159v-1011l437 421h227l-463 -436l510 -522h-236l-475 504v-504h-159z" />
    <glyph glyph-name="l" unicode="l" horiz-adv-x="491" 
d="M166 0v1548h160v-1548h-160z" />
    <glyph glyph-name="m" unicode="m" horiz-adv-x="1744" 
d="M152 0v731q0 47 -4.5 123t-4.5 104h152q0 -25 2 -77.5t2 -79.5h4q35 76 121.5 129t198.5 53q59 0 108 -13t79 -31t55.5 -46t37 -47t23.5 -45q56 90 127.5 136t175.5 46q197 0 280.5 -102t83.5 -299v-582h-159v573q0 54 -11 98t-36 83t-72.5 60.5t-114.5 21.5
q-104 0 -176 -78.5t-72 -204.5v-553h-159v543q0 158 -43 225.5t-142 67.5q-150 0 -223.5 -98.5t-73.5 -270.5v-467h-159z" />
    <glyph glyph-name="n" unicode="n" 
d="M152 0v731q0 47 -4.5 123t-4.5 104h152q0 -25 2 -77.5t2 -79.5h4q35 76 121.5 129t198.5 53q182 0 273 -105t91 -286v-592h-160v575q0 124 -54.5 192.5t-164.5 68.5q-150 0 -223.5 -98.5t-73.5 -270.5v-467h-159z" />
    <glyph glyph-name="o" unicode="o" horiz-adv-x="1216" 
d="M96 479q0 223 144.5 363.5t367.5 140.5t367.5 -140.5t144.5 -363.5t-144.5 -363.5t-367.5 -140.5t-367.5 140.5t-144.5 363.5zM268 479q0 -154 93.5 -255t246.5 -101t246.5 101t93.5 255t-93.5 255.5t-246.5 101.5t-246.5 -101.5t-93.5 -255.5z" />
    <glyph glyph-name="p" unicode="p" horiz-adv-x="1251" 
d="M143 -467v1425h160v-139h4q141 164 344 164q224 0 364 -142t140 -362q0 -214 -138.5 -359t-340.5 -145q-125 0 -224 55t-145 140h-4v-637h-160zM303 479q0 -154 93.5 -255t246.5 -101t246.5 101t93.5 255t-93.5 255.5t-246.5 101.5t-246.5 -101.5t-93.5 -255.5z" />
    <glyph glyph-name="q" unicode="q" horiz-adv-x="1251" 
d="M1108 958v-1425h-160v606h-4q-141 -164 -344 -164q-224 0 -364 142t-140 362q0 214 138.5 359t340.5 145q125 0 224 -55t145 -140h4v170h160zM948 479q0 154 -93.5 255.5t-246.5 101.5t-246.5 -101.5t-93.5 -255.5t93.5 -255t246.5 -101t246.5 101t93.5 255z" />
    <glyph glyph-name="r" unicode="r" horiz-adv-x="720" 
d="M152 0v731q0 47 -4.5 123t-4.5 104h152q0 -25 2 -77.5t2 -79.5h4q35 76 121.5 129t198.5 53q36 0 65 -10l-10 -162q-40 12 -86 12q-142 0 -211.5 -93t-69.5 -263v-467h-159z" />
    <glyph glyph-name="s" unicode="s" horiz-adv-x="872" 
d="M45 154l127 98q51 -64 108.5 -96.5t137.5 -32.5q85 0 148 37.5t63 109.5q0 29 -12.5 52.5t-29.5 38t-47.5 27.5t-54 19t-61.5 15q-49 11 -76.5 18t-69 20t-64.5 26t-51 34t-42.5 45.5t-24.5 58.5t-10 76q0 89 53 155t133 97t172 31q107 0 193 -43t133 -131l-133 -88
q-69 115 -203 115q-73 0 -130.5 -35.5t-57.5 -98.5q0 -29 19 -51.5t55 -39t74.5 -27t92.5 -21.5q71 -14 122 -32.5t97.5 -50.5t70.5 -83t24 -121q0 -63 -21.5 -114.5t-58.5 -85.5t-86.5 -57.5t-103.5 -33.5t-113 -10q-127 0 -216 40.5t-157 138.5z" />
    <glyph glyph-name="t" unicode="t" horiz-adv-x="720" 
d="M676 958v-135h-283v-479q0 -33 0.5 -51.5t3.5 -45.5t8.5 -42t16 -33t25.5 -27t37.5 -15.5t52.5 -6.5q79 0 141 33l6 -146q-77 -35 -186 -35q-67 0 -114.5 15t-76.5 40.5t-46 68t-22.5 88t-5.5 110.5v526h-208v135h208v273h160v-273h283z" />
    <glyph glyph-name="u" unicode="u" 
d="M987 958v-731q0 -47 4 -123t4 -104h-151q0 25 -2 78t-2 80h-4q-35 -76 -121.5 -129.5t-198.5 -53.5q-182 0 -273 105.5t-91 286.5v591h159v-575q0 -123 54.5 -191.5t164.5 -68.5q150 0 223.5 98.5t73.5 270.5v466h160z" />
    <glyph glyph-name="v" unicode="v" horiz-adv-x="987" 
d="M967 958l-379 -958h-176l-392 958h187l299 -751h4l285 751h172z" />
    <glyph glyph-name="w" unicode="w" horiz-adv-x="1517" 
d="M1489 958l-309 -958h-158l-272 737h-5l-241 -737h-164l-311 958h176l219 -737h4l248 737h168l252 -737h4l217 737h172z" />
    <glyph glyph-name="x" unicode="x" horiz-adv-x="1024" 
d="M6 0l393 516l-344 442h209l254 -344l240 344h194l-329 -442l395 -516h-211l-303 414l-299 -414h-199z" />
    <glyph glyph-name="y" unicode="y" horiz-adv-x="987" 
d="M967 958l-463 -1177q-27 -69 -50.5 -112.5t-60 -83.5t-88 -58.5t-121.5 -18.5q-89 0 -143 25l20 139q44 -16 113 -16q72 0 110 39t68 119l66 180l-398 964h187l297 -751h4l285 751h174z" />
    <glyph glyph-name="z" unicode="z" horiz-adv-x="909" 
d="M61 0v125l564 698h-539v135h748v-122l-564 -701h578v-135h-787z" />
    <glyph glyph-name="braceleft" unicode="{" horiz-adv-x="681" 
d="M602 1499v-123h-110q-41 0 -64.5 -25t-30 -57.5t-6.5 -79.5v-360q0 -52 -14 -96.5t-34 -72t-46 -48.5t-45.5 -31t-36.5 -14v-4q17 -2 36.5 -10t45.5 -27.5t46 -47.5t34 -74.5t14 -104.5v-359q0 -162 101 -162h110v-122h-143q-83 0 -149 69.5t-66 186.5v358
q0 105 -53.5 169t-122.5 64v123q68 0 122 65.5t54 166.5v360q0 116 67.5 186t147.5 70h143z" />
    <glyph glyph-name="bar" unicode="|" horiz-adv-x="454" 
d="M160 1536h135v-2048h-135v2048z" />
    <glyph glyph-name="braceright" unicode="}" horiz-adv-x="681" 
d="M80 1376v123h143q80 0 147.5 -70t67.5 -186v-360q0 -101 54 -166.5t122 -65.5v-123q-69 0 -122.5 -64t-53.5 -169v-358q0 -117 -66 -186.5t-149 -69.5h-143v122h110q101 0 101 162v359q0 58 14 104.5t34 74.5t46 47.5t45.5 27.5t36.5 10v4q-17 4 -36.5 14t-45.5 31
t-46 48.5t-34 72t-14 96.5v360q0 47 -6.5 79.5t-30 57.5t-64.5 25h-110z" />
    <glyph glyph-name="asciitilde" unicode="~" horiz-adv-x="1363" 
d="M1085 762l68 -98q-26 -36 -39.5 -53t-41.5 -46.5t-50.5 -43.5t-56 -26t-70.5 -12q-35 0 -74.5 10.5t-64 20.5t-70.5 31q-11 5 -54.5 25.5t-62 28t-53 16t-65.5 8.5q-106 0 -172 -144l-68 99q30 43 49.5 66.5t52.5 54t71 45t83 14.5q35 0 74.5 -10.5t64 -20.5t70.5 -31
q11 -5 54.5 -25.5t62 -28t53 -16t65.5 -8.5q61 0 101.5 39t72.5 105z" />
    <glyph glyph-name="uni00A0" unicode="&#xa0;" horiz-adv-x="569" 
 />
    <glyph glyph-name="exclamdown" unicode="&#xa1;" horiz-adv-x="569" 
d="M199 -455v1045h172v-1045h-172zM285 762q-51 0 -87 36t-36 87q0 50 37.5 86.5t85.5 36.5t85.5 -36.5t37.5 -86.5q0 -51 -36 -87t-87 -36z" />
    <glyph glyph-name="cent" unicode="&#xa2;" 
d="M567 125v706q-125 -24 -191.5 -120t-66.5 -232q0 -132 70 -229t188 -125zM567 -160v135q-195 25 -312.5 162.5t-117.5 341.5q0 202 118.5 340.5t311.5 157.5v141h99v-135q204 -10 335 -152l-127 -112q-86 105 -208 117v-713q132 9 211 119l118 -113q-121 -141 -329 -154
v-135h-99z" />
    <glyph glyph-name="sterling" unicode="&#xa3;" 
d="M117 0v160h221v516h-197v135h197v164q0 254 120 377t318 123q203 0 330 -127l-113 -121q-103 100 -221 100q-74 0 -126 -25t-81.5 -73.5t-42 -111t-12.5 -146.5v-160h332v-135h-332v-516h504v-160h-897z" />
    <glyph glyph-name="currency" unicode="&#xa4;" 
d="M217 725q0 -144 104.5 -254.5t247.5 -110.5t248 110.5t105 254.5q0 149 -104 257t-249 108t-248.5 -108t-103.5 -257zM57 303l111 113q-111 139 -111 309q0 178 111 311l-111 111l90 90l111 -109q140 109 311 109q172 0 312 -109l110 109l90 -90l-110 -111
q110 -131 110 -311q0 -171 -110 -309l110 -113l-90 -90l-110 113q-145 -113 -312 -113q-166 0 -311 113l-111 -113z" />
    <glyph glyph-name="yen" unicode="&#xa5;" 
d="M483 0v356h-325v123h325v146l-18 32h-307v123h233l-391 670h205l364 -670l365 670h205l-391 -670h233v-123h-307l-19 -32v-146h326v-123h-326v-356h-172z" />
    <glyph glyph-name="brokenbar" unicode="&#xa6;" horiz-adv-x="454" 
d="M160 1382h135v-716h-135v716zM160 358h135v-716h-135v716z" />
    <glyph glyph-name="section" unicode="&#xa7;" 
d="M948 1294l-153 -84q-23 64 -81.5 96.5t-129.5 32.5q-87 0 -151 -45t-64 -131q0 -100 90 -147l200 -101q56 -27 88.5 -44t81 -50.5t75 -64.5t47 -78t20.5 -100q0 -90 -47.5 -159t-128.5 -114q141 -91 141 -252q0 -69 -23.5 -126.5t-63.5 -98t-93.5 -68.5t-113.5 -41.5
t-124 -13.5q-139 0 -246.5 63t-156.5 189l157 74q27 -90 94.5 -134t163.5 -44q94 0 158 47t64 141q0 17 -4 33t-8.5 29t-16 26.5t-18 22t-24 20.5t-24.5 17.5t-28.5 16.5t-26.5 14t-29 14t-26 12l-250 131q-71 37 -110.5 102.5t-39.5 147.5q0 187 207 286q-157 89 -157 242
q0 79 33.5 143.5t89.5 105t125.5 62t144.5 21.5q74 0 141.5 -19t127 -63.5t89.5 -110.5zM483 463l183 -88q54 23 93.5 72.5t39.5 105.5q0 33 -13.5 63t-31 50.5t-48 42t-51.5 33t-55 28.5l-119 59q-32 -13 -49.5 -21t-45 -25t-42 -33t-26 -41.5t-11.5 -55.5
q0 -31 11.5 -57.5t26 -43.5t42 -36t45.5 -28t51 -25z" />
    <glyph glyph-name="dieresis" unicode="&#xa8;" horiz-adv-x="491" 
d="M43 1401q45 0 78 -33t33 -78q0 -46 -32.5 -78t-78.5 -32t-78.5 32t-32.5 78q0 45 33 78t78 33zM449 1401q45 0 77.5 -33t32.5 -78q0 -46 -32 -78t-78 -32t-78.5 32t-32.5 78q0 45 33 78t78 33z" />
    <glyph glyph-name="copyright" unicode="&#xa9;" horiz-adv-x="1638" 
d="M1102 578h127q-32 -147 -135.5 -233.5t-243.5 -86.5q-204 0 -329.5 132t-125.5 335q0 206 121 335.5t328 129.5q150 0 255 -80.5t128 -228.5h-125q-18 87 -87.5 142.5t-168.5 55.5q-148 0 -232 -99t-84 -255q0 -146 89 -251t231 -105q100 0 169 59t83 150zM57 725
q0 212 103.5 388t278 275t380.5 99q205 0 379.5 -99t278.5 -275t104 -388t-104 -388t-278.5 -275t-379.5 -99q-206 0 -380.5 99t-278 275t-103.5 388zM193 725q0 -136 49 -257t132.5 -207.5t199.5 -136.5t245 -50t244.5 50.5t199.5 136.5t133.5 207t49.5 257t-49.5 257
t-133.5 207t-199.5 136.5t-244.5 50.5t-245 -50t-199.5 -136.5t-132.5 -207.5t-49 -257z" />
    <glyph glyph-name="ordfeminine" unicode="&#xaa;" horiz-adv-x="690" 
d="M614 1231v-262q0 -18 9 -88h-125q-6 49 -6 92h-5q-51 -105 -204 -105q-97 0 -156 46.5t-59 134.5q0 39 14.5 70.5t35.5 51.5t55.5 34t64 21.5t72.5 11.5t69 4.5t65 0.5h48v29q0 33 -40.5 62.5t-109.5 29.5q-57 0 -107.5 -19.5t-74.5 -44.5l-64 86q46 43 111.5 66
t134.5 23q144 0 208 -60t64 -184zM492 1145h-99q-29 0 -46.5 -0.5t-48 -5.5t-48.5 -14t-32.5 -28t-14.5 -46q0 -33 32 -52.5t84 -19.5q78 0 125.5 41t47.5 90v35z" />
    <glyph glyph-name="guillemotleft" unicode="&#xab;" horiz-adv-x="1024" 
d="M524 856l-239 -364l239 -365l-112 -74l-293 439l293 438zM905 856l-239 -364l239 -365l-112 -74l-293 439l293 438z" />
    <glyph glyph-name="logicalnot" unicode="&#xac;" horiz-adv-x="1363" 
d="M147 713v135h1070v-569h-136v434h-934z" />
    <glyph glyph-name="uni00AD" unicode="&#xad;" horiz-adv-x="681" 
d="M90 418v147h502v-147h-502z" />
    <glyph glyph-name="registered" unicode="&#xae;" horiz-adv-x="1638" 
d="M528 281v890h336q158 0 235 -62.5t77 -190.5q0 -115 -64 -174t-172 -70l256 -393h-145l-242 383h-145v-383h-136zM664 1061v-287h139q44 0 72 1.5t63 10t54.5 24t33.5 44.5t14 70q0 44 -17 73t-48.5 42t-61.5 17.5t-71 4.5h-178zM57 725q0 212 103.5 388t278 275
t380.5 99q205 0 379.5 -99t278.5 -275t104 -388t-104 -388t-278.5 -275t-379.5 -99q-206 0 -380.5 99t-278 275t-103.5 388zM193 725q0 -136 49 -257t132.5 -207.5t199.5 -136.5t245 -50t244.5 50.5t199.5 136.5t133.5 207t49.5 257t-49.5 257t-133.5 207t-199.5 136.5
t-244.5 50.5t-245 -50t-199.5 -136.5t-132.5 -207.5t-49 -257z" />
    <glyph glyph-name="macron" unicode="&#xaf;" horiz-adv-x="491" 
d="M528 1352v-123h-565v123h565z" />
    <glyph glyph-name="degree" unicode="&#xb0;" horiz-adv-x="819" 
d="M117 1182q0 123 85 208t208 85t207.5 -85t84.5 -208t-84.5 -208t-207.5 -85t-208 85t-85 208zM227 1182q0 -67 52.5 -125t130.5 -58t130 57.5t52 125.5q0 67 -52 124.5t-130 57.5t-130.5 -57.5t-52.5 -124.5z" />
    <glyph glyph-name="plusminus" unicode="&#xb1;" horiz-adv-x="1363" 
d="M147 676v135h467v344h136v-344h467v-135h-467v-344h-136v344h-467zM147 86v135h1070v-135h-1070z" />
    <glyph glyph-name="twosuperior" unicode="&#xb2;" horiz-adv-x="739" 
d="M66 592v119l344 309q66 59 93 99.5t27 99.5q0 65 -43 105t-104 40q-65 0 -111.5 -37t-58.5 -100l-129 10q18 119 97 178.5t198 59.5q125 0 206 -65t81 -191q0 -50 -13.5 -92t-44.5 -81t-55 -62t-70 -64l-245 -213v-5h436v-110h-608z" />
    <glyph glyph-name="threesuperior" unicode="&#xb3;" horiz-adv-x="739" 
d="M287 991v111h35q31 0 59 5t59.5 18.5t50.5 44t19 73.5q0 62 -40 91.5t-105 29.5q-123 0 -166 -86l-113 51q72 146 279 146q119 0 199.5 -60t80.5 -168q0 -67 -45.5 -122.5t-116.5 -75.5v-5q89 -12 141 -72.5t52 -144.5q0 -117 -89 -182t-222 -65q-241 0 -302 188l111 47
q18 -50 66 -87.5t125 -37.5q73 0 124.5 38t51.5 106q0 46 -20 78.5t-55 48.5t-70.5 23t-76.5 7h-32z" />
    <glyph glyph-name="acute" unicode="&#xb4;" horiz-adv-x="491" 
d="M104 1155l213 295h226l-293 -295h-146z" />
    <glyph glyph-name="mu" unicode="&#xb5;" 
d="M987 958v-731q0 -47 4 -123t4 -104h-151q0 25 -2 78t-2 80h-4q-35 -76 -121.5 -129.5t-198.5 -53.5q-116 0 -205 52v-494h-159v1425h159v-575q0 -123 54.5 -191.5t164.5 -68.5q150 0 223.5 98.5t73.5 270.5v466h160z" />
    <glyph glyph-name="paragraph" unicode="&#xb6;" horiz-adv-x="1228" 
d="M598 -258v905q-186 0 -307 110t-121 271q0 198 125 310t342 112h498v-1708h-148v1573h-242v-1573h-147z" />
    <glyph glyph-name="periodcentered" unicode="&#xb7;" horiz-adv-x="569" 
d="M285 756q51 0 87 -36t36 -87q0 -50 -37.5 -86.5t-85.5 -36.5t-85.5 36.5t-37.5 86.5q0 51 36 87t87 36z" />
    <glyph glyph-name="cedilla" unicode="&#xb8;" horiz-adv-x="491" 
d="M324 0l-93 -131q5 1 18 3t26 3.5t28 1.5q62 0 113 -36.5t51 -104.5q0 -90 -72 -135t-168 -45q-112 0 -202 43l34 75q72 -32 148 -32q49 0 87 19.5t38 64.5q0 39 -32.5 58t-74.5 19q-30 0 -80 -16l-41 39l127 174h93z" />
    <glyph glyph-name="onesuperior" unicode="&#xb9;" horiz-adv-x="739" 
d="M354 592v721h-4l-166 -135l-67 94l254 190h118v-870h-135z" />
    <glyph glyph-name="ordmasculine" unicode="&#xba;" horiz-adv-x="790" 
d="M61 1174q0 133 94 217t240 84t240 -84t94 -217q0 -137 -94 -221.5t-240 -84.5t-240 84.5t-94 221.5zM197 1174q0 -80 54.5 -137.5t143.5 -57.5t144 58t55 137q0 76 -55.5 133t-143.5 57t-143 -57t-55 -133z" />
    <glyph glyph-name="guillemotright" unicode="&#xbb;" horiz-adv-x="1024" 
d="M119 127l239 365l-239 364l112 74l293 -438l-293 -439zM500 127l239 365l-239 364l112 74l293 -438l-293 -439z" />
    <glyph glyph-name="onequarter" unicode="&#xbc;" horiz-adv-x="1708" 
d="M1513 870v-575h115v-111h-115v-184h-135v184h-399v129l375 557h159zM305 0l909 1516l113 -66l-909 -1516zM1378 295v416h-4l-272 -416h276zM317 592v723h-4l-166 -137l-67 94l254 190h119v-870h-136z" />
    <glyph glyph-name="onehalf" unicode="&#xbd;" horiz-adv-x="1708" 
d="M270 0l910 1516l112 -66l-909 -1516zM305 592v723h-4l-166 -137l-67 94l254 190h118v-870h-135zM1032 0v119l344 309q66 59 93.5 99.5t27.5 99.5q0 65 -43 105t-104 40q-65 0 -111.5 -37t-58.5 -100l-129 10q18 119 97 178.5t198 59.5q125 0 205.5 -65t80.5 -191
q0 -50 -13.5 -92t-44 -81t-54.5 -62.5t-70 -63.5l-246 -213v-4h436v-111h-608z" />
    <glyph glyph-name="threequarters" unicode="&#xbe;" horiz-adv-x="1708" 
d="M1542 870v-575h115v-111h-115v-184h-135v184h-399v129l374 557h160zM385 0l909 1516l113 -66l-909 -1516zM1407 295v416h-4l-273 -412v-4h277zM276 991v111h33q24 0 47 2.5t50.5 11.5t47 24t33 41.5t13.5 61.5q0 62 -40.5 91.5t-105.5 29.5q-123 0 -166 -86l-112 51
q72 146 278 146q119 0 200 -60t81 -168q0 -67 -45.5 -122.5t-116.5 -75.5v-5q89 -12 141 -72.5t52 -144.5q0 -117 -89.5 -182t-222.5 -65q-239 0 -303 188l113 47q18 -50 65.5 -87.5t124.5 -37.5q73 0 124.5 38t51.5 106q0 46 -20 78.5t-54.5 48.5t-70 23t-76.5 7h-33z" />
    <glyph glyph-name="questiondown" unicode="&#xbf;" horiz-adv-x="987" 
d="M748 -121l184 -20q-27 -164 -146.5 -257.5t-289.5 -93.5q-174 0 -287 97t-113 268q0 44 7.5 82.5t27 75.5t35 62.5t50.5 62.5t52.5 54t61.5 58q64 61 81 100.5t17 127.5v94h172v-129q0 -33 -3 -59t-5.5 -45t-14.5 -41t-17.5 -33t-27 -35t-31.5 -34l-42 -42l-35.5 -35.5
t-37.5 -38.5t-31.5 -35.5t-31 -42t-21 -41t-17 -49t-4.5 -51.5q0 -100 58.5 -161.5t158.5 -61.5q101 0 168 61t82 162zM514 762q-51 0 -87 36t-36 87q0 50 37.5 86.5t85.5 36.5t85.5 -36.5t37.5 -86.5q0 -51 -36 -87t-87 -36z" />
    <glyph glyph-name="Agrave" unicode="&#xc0;" horiz-adv-x="1441" 
d="M12 0l639 1450h162l617 -1450h-201l-148 356h-725l-149 -356h-195zM1016 516l-287 713h-4l-301 -713h592zM649 1847l213 -295h-145l-293 295h225z" />
    <glyph glyph-name="Aacute" unicode="&#xc1;" horiz-adv-x="1441" 
d="M12 0l639 1450h162l617 -1450h-201l-148 356h-725l-149 -356h-195zM1016 516l-287 713h-4l-301 -713h592zM580 1552l213 295h225l-293 -295h-145z" />
    <glyph glyph-name="Acircumflex" unicode="&#xc2;" horiz-adv-x="1441" 
d="M12 0l639 1450h162l617 -1450h-201l-148 356h-725l-149 -356h-195zM1016 516l-287 713h-4l-301 -713h592zM399 1552l228 295h186l229 -295h-165l-162 209l-160 -209h-156z" />
    <glyph glyph-name="Atilde" unicode="&#xc3;" horiz-adv-x="1441" 
d="M12 0l639 1450h162l617 -1450h-201l-148 356h-725l-149 -356h-195zM1016 516l-287 713h-4l-301 -713h592zM477 1577h-98q13 88 66.5 150.5t138.5 62.5q60 0 172 -47q9 -4 34 -15t40.5 -15.5t35.5 -4.5q73 0 99 90h98q-6 -42 -20 -78t-36 -67.5t-57 -49.5t-78 -18
q-55 0 -165 43q-5 2 -24.5 10t-28.5 11l-25.5 8.5t-30.5 7.5t-27 2q-36 0 -60 -26t-34 -64z" />
    <glyph glyph-name="Adieresis" unicode="&#xc4;" horiz-adv-x="1441" 
d="M12 0l639 1450h162l617 -1450h-201l-148 356h-725l-149 -356h-195zM1016 516l-287 713h-4l-301 -713h592zM518 1798q46 0 78.5 -33t32.5 -77q0 -46 -32.5 -78.5t-78.5 -32.5t-78 32.5t-32 78.5q0 45 32.5 77.5t77.5 32.5zM924 1798q45 0 77.5 -32.5t32.5 -77.5
q0 -46 -32 -78.5t-78 -32.5t-78.5 32.5t-32.5 78.5q0 44 32.5 77t78.5 33z" />
    <glyph glyph-name="Aring" unicode="&#xc5;" horiz-adv-x="1441" 
d="M12 0l639 1450h162l617 -1450h-201l-148 356h-725l-149 -356h-195zM1016 516l-287 713h-4l-301 -713h592zM518 1698q0 83 58.5 143t144.5 60q88 0 145.5 -59.5t57.5 -143.5t-58 -143.5t-145 -59.5t-145 59.5t-58 143.5zM604 1698q0 -49 35.5 -83t81.5 -34t81.5 34
t35.5 83q0 48 -36 82.5t-81 34.5t-81 -34.5t-36 -82.5z" />
    <glyph glyph-name="AE" unicode="&#xc6;" horiz-adv-x="1933" 
d="M-20 0l942 1450h890v-160h-602v-454h566v-160h-566v-516h627v-160h-799v393h-600l-252 -393h-206zM1038 553v737h-24l-473 -737h497z" />
    <glyph glyph-name="Ccedilla" unicode="&#xc7;" horiz-adv-x="1441" 
d="M1346 1260l-150 -109q-63 86 -159 131t-203 45q-157 0 -285.5 -84.5t-198 -222t-69.5 -295.5q0 -167 69.5 -304t196.5 -217.5t287 -80.5q261 0 419 203l129 -109q-188 -254 -548 -254l-66 -94q5 1 18 3t26 3.5t28 1.5q62 0 113 -36.5t51 -104.5q0 -90 -72 -135t-168 -45
q-113 0 -203 43l35 75q72 -32 147 -32q49 0 87 19.5t38 64.5q0 39 -32.5 58t-73.5 19q-30 0 -80 -16l-41 39l104 143q-184 19 -332 120.5t-232.5 268t-84.5 367.5q0 211 94 385t263.5 275.5t380.5 101.5q156 0 289.5 -56t222.5 -171z" />
    <glyph glyph-name="Egrave" unicode="&#xc8;" horiz-adv-x="1214" 
d="M180 0v1450h912v-160h-740v-454h690v-160h-690v-516h776v-160h-948zM537 1847l213 -295h-146l-293 295h226z" />
    <glyph glyph-name="Eacute" unicode="&#xc9;" horiz-adv-x="1214" 
d="M180 0v1450h912v-160h-740v-454h690v-160h-690v-516h776v-160h-948zM467 1552l213 295h225l-293 -295h-145z" />
    <glyph glyph-name="Ecircumflex" unicode="&#xca;" horiz-adv-x="1214" 
d="M180 0v1450h912v-160h-740v-454h690v-160h-690v-516h776v-160h-948zM287 1552l227 295h186l230 -295h-166l-162 209l-160 -209h-155z" />
    <glyph glyph-name="Edieresis" unicode="&#xcb;" horiz-adv-x="1214" 
d="M180 0v1450h912v-160h-740v-454h690v-160h-690v-516h776v-160h-948zM406 1798q45 0 77.5 -32.5t32.5 -77.5q0 -46 -32 -78.5t-78 -32.5t-78.5 32.5t-32.5 78.5q0 44 32.5 77t78.5 33zM811 1798q45 0 78 -33t33 -77q0 -46 -32.5 -78.5t-78.5 -32.5t-78.5 32.5t-32.5 78.5
q0 44 33 77t78 33z" />
    <glyph glyph-name="Igrave" unicode="&#xcc;" horiz-adv-x="532" 
d="M180 0v1450h172v-1450h-172zM195 1847l213 -295h-146l-293 295h226z" />
    <glyph glyph-name="Iacute" unicode="&#xcd;" horiz-adv-x="532" 
d="M180 0v1450h172v-1450h-172zM125 1552l213 295h225l-293 -295h-145z" />
    <glyph glyph-name="Icircumflex" unicode="&#xce;" horiz-adv-x="532" 
d="M180 0v1450h172v-1450h-172zM-55 1552l227 295h186l230 -295h-166l-162 209l-160 -209h-155z" />
    <glyph glyph-name="Idieresis" unicode="&#xcf;" horiz-adv-x="532" 
d="M180 0v1450h172v-1450h-172zM63 1798q45 0 78 -33t33 -77q0 -46 -32.5 -78.5t-78.5 -32.5t-78 32.5t-32 78.5q0 45 32.5 77.5t77.5 32.5zM469 1798q45 0 78 -33t33 -77q0 -46 -32.5 -78.5t-78.5 -32.5t-78.5 32.5t-32.5 78.5q0 44 33 77t78 33z" />
    <glyph glyph-name="Eth" unicode="&#xd0;" horiz-adv-x="1517" 
d="M154 823v627h557q90 0 183.5 -23.5t189 -78.5t169.5 -136t121 -207t47 -280t-47 -280t-121 -207t-169.5 -136t-189 -78.5t-183.5 -23.5h-557v688h-148v135h148zM326 1290v-467h516v-135h-516v-528h327q127 0 231.5 33t184.5 100t124 177t44 255t-44 255t-124 177
t-184.5 100t-231.5 33h-327z" />
    <glyph glyph-name="Ntilde" unicode="&#xd1;" horiz-adv-x="1593" 
d="M180 0v1450h217l840 -1204h4v1204h172v-1450h-217l-840 1204h-4v-1204h-172zM553 1577h-98q13 88 66 150.5t138 62.5q60 0 172 -47q11 -4 28 -12t27 -12t25.5 -7.5t30.5 -3.5q72 0 98 90h99q-6 -42 -20 -78t-36 -67.5t-57 -49.5t-78 -18q-56 0 -166 43q-6 2 -24.5 9.5
t-28 11.5t-25.5 9t-30 7t-27 2q-36 0 -60 -26t-34 -64z" />
    <glyph glyph-name="Ograve" unicode="&#xd2;" horiz-adv-x="1708" 
d="M854 -37q-162 0 -303.5 58t-241 158.5t-156.5 242t-57 303.5t57 303.5t156.5 242t241 158.5t303.5 58t303.5 -58t241 -158.5t156.5 -242t57 -303.5t-57 -303.5t-156.5 -242t-241 -158.5t-303.5 -58zM854 123q166 0 298 80.5t203.5 218t71.5 303.5t-71.5 303.5t-203.5 218
t-298 80.5t-298 -80.5t-203.5 -218t-71.5 -303.5t71.5 -303.5t203.5 -218t298 -80.5zM782 1847l213 -295h-145l-293 295h225z" />
    <glyph glyph-name="Oacute" unicode="&#xd3;" horiz-adv-x="1708" 
d="M854 -37q-162 0 -303.5 58t-241 158.5t-156.5 242t-57 303.5t57 303.5t156.5 242t241 158.5t303.5 58t303.5 -58t241 -158.5t156.5 -242t57 -303.5t-57 -303.5t-156.5 -242t-241 -158.5t-303.5 -58zM854 123q166 0 298 80.5t203.5 218t71.5 303.5t-71.5 303.5t-203.5 218
t-298 80.5t-298 -80.5t-203.5 -218t-71.5 -303.5t71.5 -303.5t203.5 -218t298 -80.5zM713 1552l213 295h225l-293 -295h-145z" />
    <glyph glyph-name="Ocircumflex" unicode="&#xd4;" horiz-adv-x="1708" 
d="M854 -37q-162 0 -303.5 58t-241 158.5t-156.5 242t-57 303.5t57 303.5t156.5 242t241 158.5t303.5 58t303.5 -58t241 -158.5t156.5 -242t57 -303.5t-57 -303.5t-156.5 -242t-241 -158.5t-303.5 -58zM854 123q166 0 298 80.5t203.5 218t71.5 303.5t-71.5 303.5t-203.5 218
t-298 80.5t-298 -80.5t-203.5 -218t-71.5 -303.5t71.5 -303.5t203.5 -218t298 -80.5zM532 1552l228 295h186l230 -295h-166l-162 209l-160 -209h-156z" />
    <glyph glyph-name="Otilde" unicode="&#xd5;" horiz-adv-x="1708" 
d="M854 -37q-162 0 -303.5 58t-241 158.5t-156.5 242t-57 303.5t57 303.5t156.5 242t241 158.5t303.5 58t303.5 -58t241 -158.5t156.5 -242t57 -303.5t-57 -303.5t-156.5 -242t-241 -158.5t-303.5 -58zM854 123q166 0 298 80.5t203.5 218t71.5 303.5t-71.5 303.5t-203.5 218
t-298 80.5t-298 -80.5t-203.5 -218t-71.5 -303.5t71.5 -303.5t203.5 -218t298 -80.5zM610 1577h-98q13 88 66.5 150.5t138.5 62.5q60 0 172 -47q9 -4 34 -15t40.5 -15.5t35.5 -4.5q73 0 99 90h98q-14 -90 -60.5 -151.5t-129.5 -61.5q-56 0 -166 43q-6 2 -24.5 9.5t-28 11.5
t-25.5 9t-30 7t-27 2q-36 0 -60.5 -26t-34.5 -64z" />
    <glyph glyph-name="Odieresis" unicode="&#xd6;" horiz-adv-x="1708" 
d="M854 -37q-162 0 -303.5 58t-241 158.5t-156.5 242t-57 303.5t57 303.5t156.5 242t241 158.5t303.5 58t303.5 -58t241 -158.5t156.5 -242t57 -303.5t-57 -303.5t-156.5 -242t-241 -158.5t-303.5 -58zM854 123q166 0 298 80.5t203.5 218t71.5 303.5t-71.5 303.5t-203.5 218
t-298 80.5t-298 -80.5t-203.5 -218t-71.5 -303.5t71.5 -303.5t203.5 -218t298 -80.5zM651 1798q45 0 78 -33t33 -77q0 -46 -32.5 -78.5t-78.5 -32.5t-78 32.5t-32 78.5q0 45 32.5 77.5t77.5 32.5zM1057 1798q45 0 77.5 -32.5t32.5 -77.5q0 -46 -32 -78.5t-78 -32.5
t-78.5 32.5t-32.5 78.5q0 44 33 77t78 33z" />
    <glyph glyph-name="multiply" unicode="&#xd7;" horiz-adv-x="1363" 
d="M289 1114l393 -395l395 395l99 -96l-398 -397l398 -394l-99 -100l-395 397l-395 -397l-99 96l396 398l-396 393z" />
    <glyph glyph-name="Oslash" unicode="&#xd8;" horiz-adv-x="1708" 
d="M1290 1126l-801 -872q150 -131 365 -131q166 0 298 80.5t203.5 218t71.5 303.5q0 236 -137 401zM410 336l798 870q-150 121 -354 121q-166 0 -298 -80.5t-203.5 -218t-71.5 -303.5q0 -229 129 -389zM123 23l166 180q-193 212 -193 522q0 162 57 303.5t156.5 242
t241 158.5t303.5 58q268 0 471 -154l162 178l86 -77l-162 -177q96 -102 148.5 -238.5t52.5 -293.5q0 -162 -57 -303.5t-156.5 -242t-241 -158.5t-303.5 -58q-281 0 -483 162l-166 -180z" />
    <glyph glyph-name="Ugrave" unicode="&#xd9;" horiz-adv-x="1441" 
d="M1268 1450v-897q0 -97 -18 -182.5t-60 -161t-104 -129.5t-155.5 -85.5t-209.5 -31.5t-209.5 31.5t-155.5 85.5t-104 129.5t-60 161t-18 182.5v897h172v-872q0 -93 18.5 -170.5t60 -143.5t117 -103.5t179.5 -37.5t179.5 37.5t117 103.5t60 143.5t18.5 170.5v872h172z
M649 1847l213 -295h-145l-293 295h225z" />
    <glyph glyph-name="Uacute" unicode="&#xda;" horiz-adv-x="1441" 
d="M1268 1450v-897q0 -97 -18 -182.5t-60 -161t-104 -129.5t-155.5 -85.5t-209.5 -31.5t-209.5 31.5t-155.5 85.5t-104 129.5t-60 161t-18 182.5v897h172v-872q0 -93 18.5 -170.5t60 -143.5t117 -103.5t179.5 -37.5t179.5 37.5t117 103.5t60 143.5t18.5 170.5v872h172z
M580 1552l213 295h225l-293 -295h-145z" />
    <glyph glyph-name="Ucircumflex" unicode="&#xdb;" horiz-adv-x="1441" 
d="M1268 1450v-897q0 -97 -18 -182.5t-60 -161t-104 -129.5t-155.5 -85.5t-209.5 -31.5t-209.5 31.5t-155.5 85.5t-104 129.5t-60 161t-18 182.5v897h172v-872q0 -93 18.5 -170.5t60 -143.5t117 -103.5t179.5 -37.5t179.5 37.5t117 103.5t60 143.5t18.5 170.5v872h172z
M399 1552l228 295h186l229 -295h-165l-162 209l-160 -209h-156z" />
    <glyph glyph-name="Udieresis" unicode="&#xdc;" horiz-adv-x="1441" 
d="M1268 1450v-897q0 -97 -18 -182.5t-60 -161t-104 -129.5t-155.5 -85.5t-209.5 -31.5t-209.5 31.5t-155.5 85.5t-104 129.5t-60 161t-18 182.5v897h172v-872q0 -93 18.5 -170.5t60 -143.5t117 -103.5t179.5 -37.5t179.5 37.5t117 103.5t60 143.5t18.5 170.5v872h172z
M518 1798q46 0 78.5 -33t32.5 -77q0 -46 -32.5 -78.5t-78.5 -32.5t-78 32.5t-32 78.5q0 45 32.5 77.5t77.5 32.5zM924 1798q45 0 77.5 -32.5t32.5 -77.5q0 -46 -32 -78.5t-78 -32.5t-78.5 32.5t-32.5 78.5q0 44 32.5 77t78.5 33z" />
    <glyph glyph-name="Yacute" unicode="&#xdd;" horiz-adv-x="1216" 
d="M522 0v625l-540 825h219l407 -655l420 655h207l-541 -825v-625h-172zM467 1552l213 295h225l-293 -295h-145z" />
    <glyph glyph-name="Thorn" unicode="&#xde;" horiz-adv-x="1214" 
d="M180 0v1450h172v-256h258q83 0 155 -12t138.5 -41t113 -73t74 -113.5t27.5 -157.5q0 -91 -30 -163t-77.5 -116t-112 -72.5t-127 -39.5t-128.5 -11h-291v-395h-172zM352 1034v-479h291q134 0 212.5 61t78.5 179t-78.5 178.5t-212.5 60.5h-291z" />
    <glyph glyph-name="germandbls" unicode="&#xdf;" horiz-adv-x="1214" 
d="M152 0v1106q0 97 25.5 179t77 147.5t140 103t205.5 37.5q173 0 287 -97.5t114 -267.5q0 -117 -58 -201t-167 -122v-4q164 -17 256 -140t92 -295q0 -212 -137.5 -341.5t-351.5 -129.5q-71 0 -127 19v145q47 -16 106 -16q153 0 245.5 92.5t92.5 245.5q0 162 -100 255
t-262 93h-47v135h45q112 0 183 67t71 179q0 108 -70.5 171.5t-179.5 63.5q-78 0 -135 -27t-87.5 -75t-44.5 -105t-14 -126v-1092h-159z" />
    <glyph glyph-name="agrave" unicode="&#xe0;" horiz-adv-x="1062" 
d="M240 731l-101 105q71 73 172 110t209 37q209 0 305.5 -100t96.5 -305v-412q0 -80 14 -166h-154q-10 43 -10 143h-4q-50 -77 -130.5 -122.5t-184.5 -45.5q-153 0 -255 75.5t-102 209.5q0 66 22 118.5t56 87t86.5 59.5t102 38.5t115.5 21t113.5 9.5t108.5 2h62v29
q0 103 -62 157t-176 54q-79 0 -153.5 -27t-130.5 -78zM762 461h-160q-158 0 -246 -45.5t-88 -139.5q0 -86 57 -125.5t154 -39.5q132 0 206 82t77 206v62zM461 1483l213 -295h-146l-292 295h225z" />
    <glyph glyph-name="aacute" unicode="&#xe1;" horiz-adv-x="1062" 
d="M240 731l-101 105q71 73 172 110t209 37q209 0 305.5 -100t96.5 -305v-412q0 -80 14 -166h-154q-10 43 -10 143h-4q-50 -77 -130.5 -122.5t-184.5 -45.5q-153 0 -255 75.5t-102 209.5q0 66 22 118.5t56 87t86.5 59.5t102 38.5t115.5 21t113.5 9.5t108.5 2h62v29
q0 103 -62 157t-176 54q-79 0 -153.5 -27t-130.5 -78zM762 461h-160q-158 0 -246 -45.5t-88 -139.5q0 -86 57 -125.5t154 -39.5q132 0 206 82t77 206v62zM391 1188l213 295h225l-292 -295h-146z" />
    <glyph glyph-name="acircumflex" unicode="&#xe2;" horiz-adv-x="1062" 
d="M240 731l-101 105q71 73 172 110t209 37q209 0 305.5 -100t96.5 -305v-412q0 -80 14 -166h-154q-10 43 -10 143h-4q-50 -77 -130.5 -122.5t-184.5 -45.5q-153 0 -255 75.5t-102 209.5q0 66 22 118.5t56 87t86.5 59.5t102 38.5t115.5 21t113.5 9.5t108.5 2h62v29
q0 103 -62 157t-176 54q-79 0 -153.5 -27t-130.5 -78zM762 461h-160q-158 0 -246 -45.5t-88 -139.5q0 -86 57 -125.5t154 -39.5q132 0 206 82t77 206v62zM211 1188l227 295h187l229 -295h-166l-162 209l-159 -209h-156z" />
    <glyph glyph-name="atilde" unicode="&#xe3;" horiz-adv-x="1062" 
d="M240 731l-101 105q71 73 172 110t209 37q209 0 305.5 -100t96.5 -305v-412q0 -80 14 -166h-154q-10 43 -10 143h-4q-50 -77 -130.5 -122.5t-184.5 -45.5q-153 0 -255 75.5t-102 209.5q0 66 22 118.5t56 87t86.5 59.5t102 38.5t115.5 21t113.5 9.5t108.5 2h62v29
q0 103 -62 157t-176 54q-79 0 -153.5 -27t-130.5 -78zM762 461h-160q-158 0 -246 -45.5t-88 -139.5q0 -86 57 -125.5t154 -39.5q132 0 206 82t77 206v62zM289 1212h-99q13 88 66.5 150.5t138.5 62.5q60 0 172 -47q11 -4 28 -12t27 -12t25.5 -7.5t30.5 -3.5q72 0 98 91h98
q-14 -90 -60.5 -151.5t-129.5 -61.5q-56 0 -166 43q-6 2 -24.5 9.5t-28 11.5t-25.5 9t-30 7t-27 2q-36 0 -60 -26.5t-34 -64.5z" />
    <glyph glyph-name="adieresis" unicode="&#xe4;" horiz-adv-x="1062" 
d="M240 731l-101 105q71 73 172 110t209 37q209 0 305.5 -100t96.5 -305v-412q0 -80 14 -166h-154q-10 43 -10 143h-4q-50 -77 -130.5 -122.5t-184.5 -45.5q-153 0 -255 75.5t-102 209.5q0 66 22 118.5t56 87t86.5 59.5t102 38.5t115.5 21t113.5 9.5t108.5 2h62v29
q0 103 -62 157t-176 54q-79 0 -153.5 -27t-130.5 -78zM762 461h-160q-158 0 -246 -45.5t-88 -139.5q0 -86 57 -125.5t154 -39.5q132 0 206 82t77 206v62zM330 1434q45 0 77.5 -33t32.5 -78q0 -46 -32 -78.5t-78 -32.5t-78.5 32.5t-32.5 78.5q0 45 33 78t78 33zM735 1434
q45 0 78 -33t33 -78q0 -46 -32.5 -78.5t-78.5 -32.5t-78 32.5t-32 78.5q0 45 32.5 78t77.5 33z" />
    <glyph glyph-name="aring" unicode="&#xe5;" horiz-adv-x="1062" 
d="M240 731l-101 105q71 73 172 110t209 37q209 0 305.5 -100t96.5 -305v-412q0 -80 14 -166h-154q-10 43 -10 143h-4q-50 -77 -130.5 -122.5t-184.5 -45.5q-153 0 -255 75.5t-102 209.5q0 66 22 118.5t56 87t86.5 59.5t102 38.5t115.5 21t113.5 9.5t108.5 2h62v29
q0 103 -62 157t-176 54q-79 0 -153.5 -27t-130.5 -78zM762 461h-160q-158 0 -246 -45.5t-88 -139.5q0 -86 57 -125.5t154 -39.5q132 0 206 82t77 206v62zM330 1354q0 83 58 142.5t144 59.5q88 0 145.5 -59.5t57.5 -142.5q0 -84 -58 -143.5t-145 -59.5t-144.5 59.5
t-57.5 143.5zM416 1354q0 -50 35 -83.5t81 -33.5t81.5 34t35.5 83q0 48 -35.5 82t-81.5 34q-45 0 -80.5 -34t-35.5 -82z" />
    <glyph glyph-name="ae" unicode="&#xe6;" horiz-adv-x="1744" 
d="M1503 268l121 -94q-83 -106 -186 -152.5t-240 -46.5q-129 0 -224.5 61.5t-139.5 145.5q-104 -207 -383 -207q-51 0 -100.5 10t-96 32.5t-81.5 55t-56 82t-21 109.5q0 301 479 301h197v25q0 109 -61.5 177.5t-178.5 68.5q-85 0 -148.5 -23t-131.5 -72l-102 107
q77 66 176.5 100.5t205.5 34.5q234 0 332 -162q154 162 340 162q206 0 330.5 -134t124.5 -368v-51h-739q2 -128 81 -217.5t197 -89.5q101 0 174 35.5t131 109.5zM772 430h-240q-47 0 -89.5 -7.5t-84 -24t-66 -49.5t-24.5 -79q0 -75 66.5 -111t157.5 -36q124 0 202 77.5
t78 202.5v27zM920 565h567q-5 123 -82 197t-207 74q-114 0 -193.5 -83t-84.5 -188z" />
    <glyph glyph-name="ccedilla" unicode="&#xe7;" horiz-adv-x="987" 
d="M961 831l-127 -112q-97 117 -242 117q-155 0 -239.5 -101t-84.5 -256q0 -151 90 -253.5t234 -102.5q158 0 244 119l118 -113q-125 -143 -325 -149l-78 -111q5 1 18 3t26 3.5t28 1.5q62 0 112.5 -36.5t50.5 -104.5q0 -62 -37.5 -104t-89.5 -59t-112 -17q-113 0 -203 43
l35 75q72 -32 147 -32q49 0 87 19.5t38 64.5q0 39 -32.5 58t-73.5 19q-30 0 -80 -16l-41 39l113 156q-199 15 -320 152t-121 345q0 220 138 362t358 142q229 0 369 -152z" />
    <glyph glyph-name="egrave" unicode="&#xe8;" 
d="M887 268l121 -94q-83 -106 -186 -152.5t-240 -46.5q-220 0 -353 144.5t-133 359.5q0 222 139.5 363t352.5 141q206 0 330 -134t124 -368v-51h-774q9 -128 97.5 -217.5t216.5 -89.5q101 0 174 35.5t131 109.5zM268 565h602q-5 123 -81.5 197t-206.5 74q-131 0 -215 -74
t-99 -197zM498 1483l213 -295h-146l-293 295h226z" />
    <glyph glyph-name="eacute" unicode="&#xe9;" 
d="M887 268l121 -94q-83 -106 -186 -152.5t-240 -46.5q-220 0 -353 144.5t-133 359.5q0 222 139.5 363t352.5 141q206 0 330 -134t124 -368v-51h-774q9 -128 97.5 -217.5t216.5 -89.5q101 0 174 35.5t131 109.5zM268 565h602q-5 123 -81.5 197t-206.5 74q-131 0 -215 -74
t-99 -197zM428 1188l213 295h225l-293 -295h-145z" />
    <glyph glyph-name="ecircumflex" unicode="&#xea;" 
d="M887 268l121 -94q-83 -106 -186 -152.5t-240 -46.5q-220 0 -353 144.5t-133 359.5q0 222 139.5 363t352.5 141q206 0 330 -134t124 -368v-51h-774q9 -128 97.5 -217.5t216.5 -89.5q101 0 174 35.5t131 109.5zM268 565h602q-5 123 -81.5 197t-206.5 74q-131 0 -215 -74
t-99 -197zM248 1188l227 295h187l229 -295h-166l-162 209l-160 -209h-155z" />
    <glyph glyph-name="edieresis" unicode="&#xeb;" 
d="M887 268l121 -94q-83 -106 -186 -152.5t-240 -46.5q-220 0 -353 144.5t-133 359.5q0 222 139.5 363t352.5 141q206 0 330 -134t124 -368v-51h-774q9 -128 97.5 -217.5t216.5 -89.5q101 0 174 35.5t131 109.5zM268 565h602q-5 123 -81.5 197t-206.5 74q-131 0 -215 -74
t-99 -197zM367 1434q45 0 77.5 -33t32.5 -78q0 -46 -32 -78.5t-78 -32.5t-78.5 32.5t-32.5 78.5q0 45 33 78t78 33zM772 1434q45 0 78 -33t33 -78q0 -46 -32.5 -78.5t-78.5 -32.5t-78 32.5t-32 78.5q0 45 32.5 78t77.5 33z" />
    <glyph glyph-name="igrave" unicode="&#xec;" horiz-adv-x="491" 
d="M166 0v958h160v-958h-160zM174 1483l213 -295h-145l-293 295h225z" />
    <glyph glyph-name="iacute" unicode="&#xed;" horiz-adv-x="491" 
d="M166 0v958h160v-958h-160zM104 1188l213 295h226l-293 -295h-146z" />
    <glyph glyph-name="icircumflex" unicode="&#xee;" horiz-adv-x="491" 
d="M166 0v958h160v-958h-160zM-76 1188l228 295h186l229 -295h-166l-161 209l-160 -209h-156z" />
    <glyph glyph-name="idieresis" unicode="&#xef;" horiz-adv-x="491" 
d="M166 0v958h160v-958h-160zM43 1434q45 0 78 -33t33 -78q0 -46 -32.5 -78.5t-78.5 -32.5t-78.5 32.5t-32.5 78.5q0 45 33 78t78 33zM449 1434q45 0 77.5 -33t32.5 -78q0 -46 -32 -78.5t-78 -32.5t-78.5 32.5t-32.5 78.5q0 45 33 78t78 33z" />
    <glyph glyph-name="eth" unicode="&#xf0;" horiz-adv-x="1216" 
d="M262 1249l217 109q-70 67 -180 155l141 82q129 -107 187 -163l219 110l94 -80l-227 -114q91 -86 157 -164t126.5 -177.5t92 -216.5t31.5 -247q0 -258 -131 -413t-381 -155q-223 0 -367.5 140.5t-144.5 363.5t144.5 363.5t367.5 140.5q166 0 266 -100l3 4
q-92 171 -310 389l-219 -111zM268 479q0 -154 93.5 -255t246.5 -101t246.5 101t93.5 255t-93.5 255.5t-246.5 101.5t-246.5 -101.5t-93.5 -255.5z" />
    <glyph glyph-name="ntilde" unicode="&#xf1;" 
d="M152 0v731q0 47 -4.5 123t-4.5 104h152q0 -25 2 -77.5t2 -79.5h4q35 76 121.5 129t198.5 53q182 0 273 -105t91 -286v-592h-160v575q0 124 -54.5 192.5t-164.5 68.5q-150 0 -223.5 -98.5t-73.5 -270.5v-467h-159zM326 1212h-99q13 88 66.5 150.5t138.5 62.5q60 0 172 -47
q11 -4 28 -12t27 -12t25.5 -7.5t30.5 -3.5q72 0 98 91h98q-14 -90 -60.5 -151.5t-129.5 -61.5q-56 0 -166 43q-6 2 -24.5 9.5t-28 11.5t-25.5 9t-30 7t-27 2q-36 0 -60 -26.5t-34 -64.5z" />
    <glyph glyph-name="ograve" unicode="&#xf2;" horiz-adv-x="1216" 
d="M96 479q0 223 144.5 363.5t367.5 140.5t367.5 -140.5t144.5 -363.5t-144.5 -363.5t-367.5 -140.5t-367.5 140.5t-144.5 363.5zM268 479q0 -154 93.5 -255t246.5 -101t246.5 101t93.5 255t-93.5 255.5t-246.5 101.5t-246.5 -101.5t-93.5 -255.5zM537 1483l213 -295h-146
l-293 295h226z" />
    <glyph glyph-name="oacute" unicode="&#xf3;" horiz-adv-x="1216" 
d="M96 479q0 223 144.5 363.5t367.5 140.5t367.5 -140.5t144.5 -363.5t-144.5 -363.5t-367.5 -140.5t-367.5 140.5t-144.5 363.5zM268 479q0 -154 93.5 -255t246.5 -101t246.5 101t93.5 255t-93.5 255.5t-246.5 101.5t-246.5 -101.5t-93.5 -255.5zM467 1188l213 295h225
l-293 -295h-145z" />
    <glyph glyph-name="ocircumflex" unicode="&#xf4;" horiz-adv-x="1216" 
d="M96 479q0 223 144.5 363.5t367.5 140.5t367.5 -140.5t144.5 -363.5t-144.5 -363.5t-367.5 -140.5t-367.5 140.5t-144.5 363.5zM268 479q0 -154 93.5 -255t246.5 -101t246.5 101t93.5 255t-93.5 255.5t-246.5 101.5t-246.5 -101.5t-93.5 -255.5zM287 1188l227 295h186
l230 -295h-166l-162 209l-160 -209h-155z" />
    <glyph glyph-name="otilde" unicode="&#xf5;" horiz-adv-x="1216" 
d="M96 479q0 223 144.5 363.5t367.5 140.5t367.5 -140.5t144.5 -363.5t-144.5 -363.5t-367.5 -140.5t-367.5 140.5t-144.5 363.5zM268 479q0 -154 93.5 -255t246.5 -101t246.5 101t93.5 255t-93.5 255.5t-246.5 101.5t-246.5 -101.5t-93.5 -255.5zM365 1212h-99
q13 88 66.5 150.5t138.5 62.5q60 0 172 -47q11 -4 28 -12t27 -12t25.5 -7.5t30.5 -3.5q72 0 98 91h98q-14 -90 -60.5 -151.5t-129.5 -61.5q-56 0 -166 43q-6 2 -24.5 9.5t-28 11.5t-25.5 9t-30 7t-27 2q-36 0 -60 -26.5t-34 -64.5z" />
    <glyph glyph-name="odieresis" unicode="&#xf6;" horiz-adv-x="1216" 
d="M96 479q0 223 144.5 363.5t367.5 140.5t367.5 -140.5t144.5 -363.5t-144.5 -363.5t-367.5 -140.5t-367.5 140.5t-144.5 363.5zM268 479q0 -154 93.5 -255t246.5 -101t246.5 101t93.5 255t-93.5 255.5t-246.5 101.5t-246.5 -101.5t-93.5 -255.5zM406 1434q45 0 77.5 -33
t32.5 -78q0 -46 -32 -78.5t-78 -32.5t-78.5 32.5t-32.5 78.5q0 45 33 78t78 33zM811 1434q45 0 78 -33t33 -78q0 -46 -32.5 -78.5t-78.5 -32.5t-78.5 32.5t-32.5 78.5q0 45 33 78t78 33z" />
    <glyph glyph-name="divide" unicode="&#xf7;" horiz-adv-x="1363" 
d="M147 553v135h1070v-135h-1070zM565 958q0 49 34.5 83t82.5 34q47 0 82 -35t35 -82q0 -49 -34.5 -82.5t-82.5 -33.5q-47 0 -82 34.5t-35 81.5zM565 283q0 49 34.5 82.5t82.5 33.5q47 0 82 -34.5t35 -81.5q0 -49 -34.5 -83t-82.5 -34q-47 0 -82 35t-35 82z" />
    <glyph glyph-name="oslash" unicode="&#xf8;" horiz-adv-x="1216" 
d="M332 266l489 498q-88 72 -213 72q-153 0 -246.5 -101.5t-93.5 -255.5q0 -124 64 -213zM885 692l-490 -497q85 -72 213 -72q153 0 246.5 101t93.5 255q0 125 -63 213zM76 4l139 143q-119 132 -119 332q0 223 144.5 363.5t367.5 140.5q190 0 326 -104l137 141l70 -66
l-137 -141q116 -135 116 -334q0 -223 -144.5 -363.5t-367.5 -140.5q-191 0 -323 107l-140 -143z" />
    <glyph glyph-name="ugrave" unicode="&#xf9;" 
d="M987 958v-731q0 -47 4 -123t4 -104h-151q0 25 -2 78t-2 80h-4q-35 -76 -121.5 -129.5t-198.5 -53.5q-182 0 -273 105.5t-91 286.5v591h159v-575q0 -123 54.5 -191.5t164.5 -68.5q150 0 223.5 98.5t73.5 270.5v466h160zM498 1483l213 -295h-146l-293 295h226z" />
    <glyph glyph-name="uacute" unicode="&#xfa;" 
d="M987 958v-731q0 -47 4 -123t4 -104h-151q0 25 -2 78t-2 80h-4q-35 -76 -121.5 -129.5t-198.5 -53.5q-182 0 -273 105.5t-91 286.5v591h159v-575q0 -123 54.5 -191.5t164.5 -68.5q150 0 223.5 98.5t73.5 270.5v466h160zM428 1188l213 295h225l-293 -295h-145z" />
    <glyph glyph-name="ucircumflex" unicode="&#xfb;" 
d="M987 958v-731q0 -47 4 -123t4 -104h-151q0 25 -2 78t-2 80h-4q-35 -76 -121.5 -129.5t-198.5 -53.5q-182 0 -273 105.5t-91 286.5v591h159v-575q0 -123 54.5 -191.5t164.5 -68.5q150 0 223.5 98.5t73.5 270.5v466h160zM248 1188l227 295h187l229 -295h-166l-162 209
l-160 -209h-155z" />
    <glyph glyph-name="udieresis" unicode="&#xfc;" 
d="M987 958v-731q0 -47 4 -123t4 -104h-151q0 25 -2 78t-2 80h-4q-35 -76 -121.5 -129.5t-198.5 -53.5q-182 0 -273 105.5t-91 286.5v591h159v-575q0 -123 54.5 -191.5t164.5 -68.5q150 0 223.5 98.5t73.5 270.5v466h160zM367 1434q45 0 77.5 -33t32.5 -78q0 -46 -32 -78.5
t-78 -32.5t-78.5 32.5t-32.5 78.5q0 45 33 78t78 33zM772 1434q45 0 78 -33t33 -78q0 -46 -32.5 -78.5t-78.5 -32.5t-78 32.5t-32 78.5q0 45 32.5 78t77.5 33z" />
    <glyph glyph-name="yacute" unicode="&#xfd;" horiz-adv-x="987" 
d="M967 958l-463 -1177q-27 -69 -50.5 -112.5t-60 -83.5t-88 -58.5t-121.5 -18.5q-89 0 -143 25l20 139q44 -16 113 -16q72 0 110 39t68 119l66 180l-398 964h187l297 -751h4l285 751h174zM352 1188l213 295h226l-293 -295h-146z" />
    <glyph glyph-name="thorn" unicode="&#xfe;" horiz-adv-x="1251" 
d="M143 -467v2015h160v-729h4q141 164 344 164q224 0 364 -142t140 -362q0 -214 -138.5 -359t-340.5 -145q-125 0 -224 55t-145 140h-4v-637h-160zM303 479q0 -154 93.5 -255t246.5 -101t246.5 101t93.5 255t-93.5 255.5t-246.5 101.5t-246.5 -101.5t-93.5 -255.5z" />
    <glyph glyph-name="ydieresis" unicode="&#xff;" horiz-adv-x="987" 
d="M967 958l-463 -1177q-27 -69 -50.5 -112.5t-60 -83.5t-88 -58.5t-121.5 -18.5q-89 0 -143 25l20 139q44 -16 113 -16q72 0 110 39t68 119l66 180l-398 964h187l297 -751h4l285 751h174zM291 1434q45 0 77.5 -33t32.5 -78q0 -46 -32 -78.5t-78 -32.5t-78.5 32.5
t-32.5 78.5q0 45 33 78t78 33zM696 1434q45 0 78 -33t33 -78q0 -46 -32.5 -78.5t-78.5 -32.5t-78 32.5t-32 78.5q0 45 32.5 78t77.5 33z" />
    <glyph glyph-name="dotlessi" unicode="&#x131;" horiz-adv-x="491" 
d="M166 0v958h160v-958h-160z" />
    <glyph glyph-name="Lslash" unicode="&#x141;" horiz-adv-x="1024" 
d="M180 0v453l-160 -138v162l160 137v836h172v-688l443 381v-162l-443 -381v-440h664v-160h-836z" />
    <glyph glyph-name="lslash" unicode="&#x142;" horiz-adv-x="491" 
d="M166 0v631l-166 -166v168l166 166v749h160v-590l166 166v-166l-166 -165v-793h-160z" />
    <glyph glyph-name="OE" unicode="&#x152;" horiz-adv-x="1972" 
d="M1233 1290v-454h577v-160h-577v-516h627v-160h-942q-193 0 -349 60t-254 161.5t-150 230.5t-52 273t52 273t150 230.5t254 161.5t349 60h929v-160h-614zM1061 160v1130h-135q-126 0 -231.5 -32t-178 -86.5t-122.5 -127.5t-73.5 -153.5t-23.5 -165.5t23.5 -165.5
t73.5 -153.5t122.5 -127.5t178 -86.5t231.5 -32h135z" />
    <glyph glyph-name="oe" unicode="&#x153;" horiz-adv-x="1857" 
d="M1784 430h-740q2 -128 81.5 -217.5t197.5 -89.5q101 0 174 35.5t131 109.5l121 -94q-83 -106 -186 -152.5t-240 -46.5q-109 0 -202.5 48.5t-153.5 148.5q-147 -197 -394 -197q-227 0 -363 138t-136 366q0 218 138 361t355 143q129 0 226 -46t174 -146q148 192 362 192
q206 0 330.5 -134t124.5 -368v-51zM246 479q0 -70 20.5 -133.5t59 -113.5t100.5 -79.5t139 -29.5q157 0 244.5 101t87.5 255q0 72 -21 135.5t-60 113.5t-102 79t-141 29q-155 0 -241 -101.5t-86 -255.5zM1044 565h568q-5 123 -82 197t-207 74q-114 0 -194 -83t-85 -188z" />
    <glyph glyph-name="Scaron" unicode="&#x160;" 
d="M1010 1317l-142 -123q-41 66 -111.5 99.5t-152.5 33.5q-80 0 -148 -24t-114.5 -81t-46.5 -139q0 -99 65 -154.5t240 -111.5q46 -15 74.5 -24.5t70.5 -26t68 -30t60 -34.5t54.5 -42t43 -50.5t35 -61.5t20.5 -73t8 -88q0 -105 -42.5 -187.5t-114.5 -133.5t-162 -77
t-191 -26q-137 0 -257 49t-189 152l147 121q44 -77 128.5 -119.5t181.5 -42.5q77 0 147 27.5t119 86.5t49 138q0 50 -14.5 87.5t-37.5 62.5t-70.5 49t-93.5 40.5t-126 43.5q-24 8 -37 12q-67 22 -116.5 44.5t-98 56t-78.5 73.5t-48.5 97t-18.5 128q0 101 41 182.5t110.5 132
t157 77t184.5 26.5q262 0 406 -170zM889 1847l-225 -295h-187l-227 295h166l159 -209l158 209h156z" />
    <glyph glyph-name="scaron" unicode="&#x161;" horiz-adv-x="872" 
d="M45 154l127 98q51 -64 108.5 -96.5t137.5 -32.5q85 0 148 37.5t63 109.5q0 29 -12.5 52.5t-29.5 38t-47.5 27.5t-54 19t-61.5 15q-49 11 -76.5 18t-69 20t-64.5 26t-51 34t-42.5 45.5t-24.5 58.5t-10 76q0 89 53 155t133 97t172 31q107 0 193 -43t133 -131l-133 -88
q-69 115 -203 115q-73 0 -130.5 -35.5t-57.5 -98.5q0 -29 19 -51.5t55 -39t74.5 -27t92.5 -21.5q71 -14 122 -32.5t97.5 -50.5t70.5 -83t24 -121q0 -63 -21.5 -114.5t-58.5 -85.5t-86.5 -57.5t-103.5 -33.5t-113 -10q-127 0 -216 40.5t-157 138.5zM756 1483l-226 -295h-186
l-227 295h166l159 -209l158 209h156z" />
    <glyph glyph-name="Ydieresis" unicode="&#x178;" horiz-adv-x="1216" 
d="M522 0v625l-540 825h219l407 -655l420 655h207l-541 -825v-625h-172zM406 1798q45 0 77.5 -32.5t32.5 -77.5q0 -46 -32 -78.5t-78 -32.5t-78.5 32.5t-32.5 78.5q0 44 32.5 77t78.5 33zM811 1798q45 0 78 -33t33 -77q0 -46 -32.5 -78.5t-78.5 -32.5t-78.5 32.5t-32.5 78.5
q0 44 33 77t78 33z" />
    <glyph glyph-name="Zcaron" unicode="&#x17d;" horiz-adv-x="1175" 
d="M59 0v154l838 1136h-825v160h1034v-147l-838 -1143h848v-160h-1057zM907 1847l-225 -295h-186l-228 295h166l160 -209l158 209h155z" />
    <glyph glyph-name="zcaron" unicode="&#x17e;" horiz-adv-x="909" 
d="M61 0v125l564 698h-539v135h748v-122l-564 -701h578v-135h-787zM774 1483l-225 -295h-187l-227 295h166l160 -209l157 209h156z" />
    <glyph glyph-name="florin" unicode="&#x192;" 
d="M883 870v-135h-258l-133 -704q-15 -76 -38 -132t-61.5 -101.5t-97.5 -69t-139 -23.5q-100 0 -176 49l73 129q47 -30 107 -30q27 0 49.5 7.5t38.5 18t29 29.5t21 35t15 42.5t10.5 42.5t8.5 44l123 663h-222v135h248l43 226q13 67 26.5 116t39.5 101.5t60.5 85.5t88 54.5
t121.5 21.5q109 0 205 -58l-76 -127q-65 37 -117 37q-38 0 -68 -15t-47 -35t-31 -56t-20 -60t-14 -65l-43 -226h234z" />
    <glyph glyph-name="circumflex" unicode="&#x2c6;" horiz-adv-x="491" 
d="M-76 1155l228 295h186l229 -295h-166l-161 209l-160 -209h-156z" />
    <glyph glyph-name="caron" unicode="&#x2c7;" horiz-adv-x="491" 
d="M565 1450l-225 -295h-186l-228 295h166l160 -209l158 209h155z" />
    <glyph glyph-name="uni02C9" unicode="&#x2c9;" horiz-adv-x="491" 
d="M528 1352v-123h-565v123h565z" />
    <glyph glyph-name="breve" unicode="&#x2d8;" horiz-adv-x="491" 
d="M-68 1438h101q15 -77 72.5 -118.5t138.5 -41.5q92 0 144 36.5t73 123.5h98q-13 -131 -97.5 -201t-217.5 -70q-132 0 -218.5 70.5t-93.5 200.5z" />
    <glyph glyph-name="dotaccent" unicode="&#x2d9;" horiz-adv-x="491" 
d="M246 1401q45 0 77.5 -33t32.5 -78q0 -46 -32 -78t-78 -32q-47 0 -79 32t-32 78q0 45 33 78t78 33z" />
    <glyph glyph-name="ring" unicode="&#x2da;" horiz-adv-x="491" 
d="M43 1321q0 83 58.5 143t144.5 60q88 0 145.5 -59.5t57.5 -143.5t-58 -143.5t-145 -59.5t-145 59.5t-58 143.5zM129 1321q0 -49 35.5 -83t81.5 -34t81 33.5t35 83.5q0 48 -35.5 82.5t-80.5 34.5t-81 -34.5t-36 -82.5z" />
    <glyph glyph-name="ogonek" unicode="&#x2db;" horiz-adv-x="491" 
d="M373 -289l43 -84q-83 -80 -189 -80q-77 0 -133.5 49t-56.5 125q0 80 56 156t130 123h105q-58 -41 -107 -105.5t-49 -130.5q0 -43 25 -69t73 -25q62 0 103 41z" />
    <glyph glyph-name="tilde" unicode="&#x2dc;" horiz-adv-x="491" 
d="M2 1180h-98q13 88 66.5 150.5t138.5 62.5q60 0 172 -47q9 -4 34 -15t40.5 -15.5t35.5 -4.5q72 0 98 90h99q-6 -42 -20 -78t-36 -67.5t-57 -49.5t-78 -18q-56 0 -166 43q-6 2 -24.5 9.5t-28 11.5t-25.5 9t-30 7t-27 2q-36 0 -60 -26t-34 -64z" />
    <glyph glyph-name="hungarumlaut" unicode="&#x2dd;" horiz-adv-x="491" 
d="M356 1450l-264 -295h-137l205 295h196zM707 1450l-293 -295h-140l224 295h209z" />
    <glyph glyph-name="uni03A9" unicode="&#x3a9;" horiz-adv-x="1474" 
d="M406 127v6q-120 109 -198.5 274.5t-78.5 368.5q0 150 47 279.5t128.5 219t195 140.5t243.5 51q134 0 247.5 -56t189.5 -150t118.5 -217t42.5 -257q0 -211 -81 -382.5t-199 -270.5v-6h309v-127h-491v94q130 87 218.5 259.5t88.5 404.5q0 82 -18 164t-55 156.5t-88.5 132
t-125 92t-158.5 34.5q-136 0 -241 -78.5t-160 -211t-55 -295.5q0 -217 91 -397t216 -261v-94h-492v127h306z" />
    <glyph glyph-name="uni03BC" unicode="&#x3bc;" 
d="M987 958v-731q0 -47 4 -123t4 -104h-151q0 25 -2 78t-2 80h-4q-35 -76 -121.5 -129.5t-198.5 -53.5q-116 0 -205 52v-494h-159v1425h159v-575q0 -123 54.5 -191.5t164.5 -68.5q150 0 223.5 98.5t73.5 270.5v466h160z" />
    <glyph glyph-name="pi" unicode="&#x3c0;" horiz-adv-x="1169" 
d="M1114 942h-164v-639q0 -189 29 -303h-150q-34 66 -34 291v651h-371q-10 -223 -53.5 -513.5t-96.5 -428.5h-151q56 161 98.5 441.5t48.5 500.5q-154 0 -227 -27l-25 105q90 55 295 55h815z" />
    <glyph glyph-name="endash" unicode="&#x2013;" horiz-adv-x="1024" 
d="M1024 565v-147h-1024v147h1024z" />
    <glyph glyph-name="emdash" unicode="&#x2014;" horiz-adv-x="2048" 
d="M0 418v147h2048v-147h-2048z" />
    <glyph glyph-name="quoteleft" unicode="&#x2018;" horiz-adv-x="569" 
d="M123 958l168 492h155l-137 -492h-186z" />
    <glyph glyph-name="quoteright" unicode="&#x2019;" horiz-adv-x="569" 
d="M446 1450l-167 -492h-156l137 492h186z" />
    <glyph glyph-name="quotesinglbase" unicode="&#x201a;" horiz-adv-x="569" 
d="M446 209l-167 -492h-156l137 492h186z" />
    <glyph glyph-name="quotedblleft" unicode="&#x201c;" horiz-adv-x="1062" 
d="M178 958l168 492h156l-137 -492h-187zM561 958l168 492h156l-137 -492h-187z" />
    <glyph glyph-name="quotedblright" unicode="&#x201d;" horiz-adv-x="1062" 
d="M502 1450l-168 -492h-156l137 492h187zM885 1450l-168 -492h-156l137 492h187z" />
    <glyph glyph-name="quotedblbase" unicode="&#x201e;" horiz-adv-x="1062" 
d="M502 209l-168 -492h-156l137 492h187zM885 209l-168 -492h-156l137 492h187z" />
    <glyph glyph-name="dagger" unicode="&#x2020;" 
d="M649 1450v-416h418v-135h-418v-1157h-160v1157h-417v135h417v416h160z" />
    <glyph glyph-name="daggerdbl" unicode="&#x2021;" 
d="M649 1450v-393h406v-135h-406v-652h406v-135h-406v-393h-160v393h-405v135h405v652h-405v135h405v393h160z" />
    <glyph glyph-name="bullet" unicode="&#x2022;" horiz-adv-x="1024" 
d="M150 725q0 151 105.5 256.5t256.5 105.5t256.5 -105.5t105.5 -256.5t-105.5 -257t-256.5 -106t-256.5 106t-105.5 257z" />
    <glyph glyph-name="ellipsis" unicode="&#x2026;" horiz-adv-x="2048" 
d="M342 233q51 0 87 -35.5t36 -86.5q0 -50 -37.5 -86.5t-85.5 -36.5t-85.5 36.5t-37.5 86.5q0 51 36 86.5t87 35.5zM1024 233q51 0 87 -35.5t36 -86.5q0 -50 -37.5 -86.5t-85.5 -36.5t-85.5 36.5t-37.5 86.5q0 51 36 86.5t87 35.5zM1706 233q51 0 87 -35.5t36 -86.5
q0 -50 -37.5 -86.5t-85.5 -36.5t-85.5 36.5t-37.5 86.5q0 51 36 86.5t87 35.5z" />
    <glyph glyph-name="perthousand" unicode="&#x2030;" horiz-adv-x="2084" 
d="M668 297q0 131 95 226t226 95t226.5 -95.5t95.5 -225.5q0 -133 -94.5 -227.5t-227.5 -94.5t-227 94t-94 228zM803 297q0 -73 56.5 -129.5t129.5 -56.5q74 0 130.5 56.5t56.5 129.5t-56.5 129.5t-130.5 56.5q-73 0 -129.5 -56.5t-56.5 -129.5zM1405 297q0 131 95.5 226
t225.5 95q131 0 226.5 -95.5t95.5 -225.5q0 -133 -94 -227.5t-228 -94.5q-133 0 -227 94t-94 228zM1540 295q0 -73 56 -129.5t130 -56.5t130.5 56.5t56.5 129.5t-56.5 129.5t-130.5 56.5t-130 -56.5t-56 -129.5zM37 1153q0 131 95.5 226.5t225.5 95.5t226 -95.5t96 -226.5
q0 -133 -94 -227.5t-228 -94.5q-133 0 -227 94t-94 228zM172 1153q0 -73 56 -129.5t130 -56.5t130.5 56.5t56.5 129.5t-56.5 129.5t-130.5 56.5t-130 -56.5t-56 -129.5zM166 0l909 1516l113 -66l-909 -1516z" />
    <glyph glyph-name="guilsinglleft" unicode="&#x2039;" horiz-adv-x="643" 
d="M524 856l-239 -364l239 -365l-112 -74l-293 439l293 438z" />
    <glyph glyph-name="guilsinglright" unicode="&#x203a;" horiz-adv-x="643" 
d="M119 127l239 365l-239 364l112 74l293 -438l-293 -439z" />
    <glyph glyph-name="fraction" unicode="&#x2044;" horiz-adv-x="342" 
d="M-340 0l909 1516l113 -66l-909 -1516z" />
    <glyph glyph-name="Euro" unicode="&#x20ac;" 
d="M1075 1401l-43 -144q-102 76 -262 76q-138 0 -238.5 -90.5t-144.5 -261.5h567l-30 -121h-559q-11 -90 -11 -158q0 -38 4 -112h496l-33 -117h-448q62 -360 346 -360q154 0 258 127l94 -93q-55 -75 -152.5 -123.5t-211.5 -48.5q-208 0 -338.5 127t-171.5 371h-150l37 117
h98q-4 78 -4 119q0 88 8 151h-135l39 121h119q56 237 206.5 365.5t356.5 128.5q83 0 169 -22t134 -52z" />
    <glyph glyph-name="afii61289" unicode="&#x2113;" horiz-adv-x="993" 
d="M872 309l74 -65q-135 -258 -381 -258q-86 0 -151.5 30.5t-104.5 84.5t-60 121t-24 147v26q-15 -11 -55.5 -45t-63.5 -51l-47 90q14 11 42.5 34.5t44.5 37t38 33t39 36.5v568q0 135 27 234.5t73.5 154.5t100.5 80.5t115 25.5q125 0 189.5 -94t64.5 -242
q0 -185 -109 -370.5t-313 -386.5v-70q1 -162 64.5 -241.5t160.5 -79.5q87 0 159 59t117 141zM371 1108v-455q148 164 231.5 312t83.5 290q0 222 -147 222q-67 0 -117.5 -89t-50.5 -280z" />
    <glyph glyph-name="trademark" unicode="&#x2122;" horiz-adv-x="2027" 
d="M397 606v709h-266v135h668v-135h-267v-709h-135zM969 606v844h215l252 -641l252 641h208v-844h-135v709h-4l-278 -709h-93l-278 709h-4v-709h-135z" />
    <glyph glyph-name="Omega" unicode="&#x2126;" horiz-adv-x="1474" 
d="M406 127v6q-120 109 -198.5 274.5t-78.5 368.5q0 150 47 279.5t128.5 219t195 140.5t243.5 51q134 0 247.5 -56t189.5 -150t118.5 -217t42.5 -257q0 -211 -81 -382.5t-199 -270.5v-6h309v-127h-491v94q130 87 218.5 259.5t88.5 404.5q0 82 -18 164t-55 156.5t-88.5 132
t-125 92t-158.5 34.5q-136 0 -241 -78.5t-160 -211t-55 -295.5q0 -217 91 -397t216 -261v-94h-492v127h306z" />
    <glyph glyph-name="estimated" unicode="&#x212e;" horiz-adv-x="1808" 
d="M1735 705h-1348q-10 0 -10 -11v-407q0 -25 16 -47q101 -104 232.5 -163t277.5 -59q157 0 296.5 66t240.5 182h121q-115 -133 -289 -211t-371 -78q-169 0 -323 59t-265 159t-177 239t-66 291q0 153 66 291.5t177 239t265 160t323 59.5q170 0 324.5 -59.5t266 -160
t177.5 -239t66 -291.5v-20zM1430 758v409q0 29 -21 50q-102 100 -231.5 156.5t-274.5 56.5q-144 0 -275.5 -58.5t-232.5 -161.5q-18 -21 -18 -51v-401q0 -4 3 -9.5t7 -5.5h1034q9 0 9 15z" />
    <glyph glyph-name="partialdiff" unicode="&#x2202;" horiz-adv-x="1120" 
d="M209 1393l-53 112q145 117 342 117q102 0 193.5 -48.5t165 -142t116.5 -246t43 -345.5q0 -184 -34.5 -339.5t-100.5 -271t-168.5 -180.5t-231.5 -65q-96 0 -173 41t-124 109.5t-71.5 152t-24.5 174.5q0 118 35.5 218.5t95.5 167.5t139 104.5t166 37.5q66 0 126 -21
t101 -54t68 -63.5t41 -57.5h2q4 25 4 90q0 268 -112 439t-273 171q-151 0 -272 -100zM494 113h2q94 0 170.5 76t120 193t57.5 257q-26 81 -107 153t-190 72q-126 0 -215.5 -118t-89.5 -283q0 -154 69 -252t183 -98z" />
    <glyph glyph-name="Delta" unicode="&#x2206;" horiz-adv-x="1327" 
d="M63 0v106l515 1377h178l506 -1377v-106h-1199zM221 127h875l-297 791q-16 50 -68.5 192t-66.5 193h-9q-10 -44 -58.5 -177.5t-61.5 -175.5z" />
    <glyph glyph-name="product" unicode="&#x220f;" horiz-adv-x="1433" 
d="M1378 1303h-225v-1502h-152v1502h-573v-1502h-152v1502h-223v141h1325v-141z" />
    <glyph glyph-name="summation" unicode="&#x2211;" horiz-adv-x="1132" 
d="M1087 -199h-1040v103l551 717l-526 714v109h983v-133h-770v-8l489 -660l-530 -690v-6h843v-146z" />
    <glyph glyph-name="minus" unicode="&#x2212;" horiz-adv-x="1363" 
d="M147 688h1070v-135h-1070v135z" />
    <glyph glyph-name="uni2215" unicode="&#x2215;" horiz-adv-x="342" 
d="M-340 0l909 1516l113 -66l-909 -1516z" />
    <glyph glyph-name="uni2219" unicode="&#x2219;" horiz-adv-x="569" 
d="M285 756q51 0 87 -36t36 -87q0 -50 -37.5 -86.5t-85.5 -36.5t-85.5 36.5t-37.5 86.5q0 51 36 87t87 36z" />
    <glyph glyph-name="radical" unicode="&#x221a;" horiz-adv-x="1173" 
d="M1174 1716l-457 -2025h-135l-328 960l-154 -59l-30 94l280 111l262 -770q28 -115 35 -150h2q3 19 13 71t14 79l383 1689h115z" />
    <glyph glyph-name="infinity" unicode="&#x221e;" horiz-adv-x="1597" 
d="M1491 600v-2q0 -144 -93 -235t-220 -91q-93 0 -179 57.5t-198 186.5q-50 -58 -85 -93t-85.5 -74.5t-104.5 -58t-114 -18.5q-126 0 -217 92.5t-91 227.5q0 140 92 233t230 93q56 0 108.5 -19t101 -57t86.5 -76t85 -94q41 46 55 61t52.5 54t62 54.5t61 37.5t75 30.5
t79.5 8.5q133 0 216 -88.5t83 -229.5zM426 369h2q31 0 64 11.5t56 24t56.5 41.5t48 43.5t49.5 52t43 46.5q-89 109 -129 146q-97 89 -202 89q-95 0 -151 -67.5t-56 -165.5q2 -94 62.5 -157.5t156.5 -63.5zM1182 823h-2q-39 0 -78 -15t-75.5 -44.5t-61.5 -53t-60 -62
t-47 -50.5q59 -65 94.5 -101t77 -69t78 -46t78.5 -13q92 0 147.5 67.5t55.5 155.5q0 107 -58 169t-149 62z" />
    <glyph glyph-name="integral" unicode="&#x222b;" horiz-adv-x="733" 
d="M700 1737l-26 -109q-31 23 -74 23q-66 0 -104 -49q-38 -47 -54 -134t-16 -237q0 -160 14.5 -515t14.5 -526q0 -278 -88 -417q-33 -52 -88 -79.5t-117 -27.5q-36 0 -74 11t-59 24l26 113q56 -25 92 -25q59 0 97 47q69 94 69 357q0 172 -14 531.5t-14 520.5q0 172 25 274
t85 164q76 82 193 82q58 0 112 -28z" />
    <glyph glyph-name="approxequal" unicode="&#x2248;" horiz-adv-x="1155" 
d="M995 889l64 -55q-98 -195 -264 -195q-58 0 -106 19t-134 67q-59 35 -102.5 52.5t-90.5 17.5q-65 0 -110.5 -39.5t-91.5 -114.5l-66 55q47 91 120.5 144t162.5 53q34 0 72 -11t55.5 -19t58.5 -31.5t43 -24.5q6 -3 33 -18t34 -18.5t28.5 -13.5t33 -12.5t30 -6t36.5 -3.5
q60 0 104 37.5t90 116.5zM995 539l64 -56q-101 -194 -264 -194q-58 0 -106 19t-134 67q-47 26 -67 36.5t-56.5 22.5t-69.5 12q-65 0 -111 -41t-91 -114l-66 55q46 92 120 144.5t161 52.5q29 0 56.5 -5t54 -16.5t42.5 -19t43.5 -23.5t34.5 -20t31.5 -17.5t33 -18t29 -14
t33 -12.5t31.5 -6.5t37 -3.5q60 0 103 36.5t91 115.5z" />
    <glyph glyph-name="notequal" unicode="&#x2260;" horiz-adv-x="1155" 
d="M819 1040l-92 -202h322v-101h-361l-139 -301h500v-98h-541l-111 -244l-80 37l95 207h-308v98h351l137 301h-488v101h527l108 237z" />
    <glyph glyph-name="lessequal" unicode="&#x2264;" horiz-adv-x="1155" 
d="M1044 201l-927 463v106l925 463v-121l-819 -391v-4l821 -398v-118zM1049 12h-945v103h945v-103z" />
    <glyph glyph-name="greaterequal" unicode="&#x2265;" horiz-adv-x="1155" 
d="M119 1233l925 -463v-106l-925 -463v118l817 396v4l-817 393v121zM1049 12h-943v103h943v-103z" />
    <glyph glyph-name="lozenge" unicode="&#x25ca;" horiz-adv-x="1173" 
d="M1061 721l-414 -815h-125l-409 815l413 815h125zM920 717l-293 579q-29 72 -39 109h-4q-18 -59 -41 -109l-291 -571l295 -584q27 -62 37 -106h6q18 62 37 104z" />
    </font>
</defs>
</svg>
