<?xml version="1.0" standalone="no"?>
<!DOCTYPE svg PUBLIC "-//W3C//DTD SVG 1.1//EN" "http://www.w3.org/Graphics/SVG/1.1/DTD/svg11.dtd" >
<svg xmlns="http://www.w3.org/2000/svg" xmlns:xlink="http://www.w3.org/1999/xlink" version="1.1">
<metadata>
Created by FontForge 20201107 at Wed Jul 17 16:26:10 2024
 By 
Copyright (c) 1989, 1995, 2002 Adobe Systems Incorporated.  All Rights Reserved. (c) 1981, 1995, 2002 Heidelberger Druckmaschinen AG. All rights reserved.
</metadata>
<defs>
<font id="AvenirLTStd-BlackOblique" horiz-adv-x="532" >
  <font-face 
    font-family="Avenir LT Std 65 Medium"
    font-weight="750"
    font-style="oblique"
    font-stretch="normal"
    units-per-em="2048"
    panose-1="2 11 8 3 2 2 3 2 2 4"
    ascent="1638"
    descent="-410"
    x-height="995"
    cap-height="1450"
    bbox="-326 -563 2376.25 1952"
    underline-thickness="102"
    underline-position="-204"
    slope="-8"
    unicode-range="U+0020-FB02"
  />
<missing-glyph horiz-adv-x="1224" 
d="M201 0v1434h1024v-1434h-1024zM713 809l348 522h-696zM774 717l348 -522v1044zM365 102h696l-348 523zM303 1239v-1044l348 522z" />
    <glyph glyph-name="fi" unicode="fi" horiz-adv-x="1290" 
d="M870 0l140 995h307l-139 -995h-308zM1030 1309q11 74 70.5 126t132.5 52q74 0 118.5 -52.5t34.5 -125.5q-11 -74 -70 -126.5t-132 -52.5q-74 0 -119 53t-35 126zM215 0l104 750h-202l35 245h202l25 176q10 71 26 125.5t48.5 109t79 89.5t121 56.5t171.5 21.5
q104 0 179 -19l-52 -260q-58 21 -98 21q-78 0 -117.5 -34t-52.5 -128l-22 -158h227l-35 -245h-227l-105 -750h-307z" />
    <glyph glyph-name="fl" unicode="fl" horiz-adv-x="1290" 
d="M870 0l217 1548h308l-217 -1548h-308zM215 0l104 750h-202l35 245h202l25 176q10 71 26 125.5t48.5 109t79 89.5t121 56.5t171.5 21.5q104 0 179 -19l-52 -260q-58 21 -98 21q-78 0 -117.5 -34t-52.5 -128l-22 -158h227l-35 -245h-227l-105 -750h-307z" />
    <glyph glyph-name=".notdef" horiz-adv-x="1224" 
d="M201 0v1434h1024v-1434h-1024zM713 809l348 522h-696zM774 717l348 -522v1044zM365 102h696l-348 523zM303 1239v-1044l348 522z" />
    <glyph glyph-name=".null" horiz-adv-x="0" 
 />
    <glyph glyph-name="nonmarkingreturn" horiz-adv-x="682" 
 />
    <glyph glyph-name="space" unicode=" " horiz-adv-x="606" 
 />
    <glyph glyph-name="exclam" unicode="!" horiz-adv-x="909" 
d="M813 1450l-137 -971h-307l137 971h307zM291 176q10 78 73.5 133.5t141.5 55.5t125.5 -55.5t36.5 -133.5q-10 -78 -73.5 -133t-141.5 -55t-125.5 55t-36.5 133z" />
    <glyph glyph-name="quotedbl" unicode="&#x22;" horiz-adv-x="1064" 
d="M764 872l82 578h258l-82 -578h-258zM289 872l82 578h258l-82 -578h-258z" />
    <glyph glyph-name="numbersign" unicode="#" horiz-adv-x="1212" 
d="M207 0l115 412h-172l26 184h197l71 258h-172l25 184h197l116 412h199l-117 -412h203l117 412h198l-116 -412h172l-25 -184h-197l-71 -258h172l-27 -184h-196l-115 -412h-199l115 412h-203l-114 -412h-199zM774 596l72 258h-203l-72 -258h203z" />
    <glyph glyph-name="dollar" unicode="$" horiz-adv-x="1212" 
d="M899 1618l-20 -143q121 0 233.5 -31.5t185.5 -97.5l-229 -240q-79 79 -229 86l-47 -326l190 -57q132 -41 198 -136.5t46 -234.5q-15 -104 -66 -189t-127.5 -140.5t-169 -89.5t-196.5 -44l-21 -143h-135l20 143q-323 0 -481 166l250 244q76 -113 272 -127l48 346l-142 45
q-154 51 -219.5 141.5t-44.5 241.5q13 94 63 173.5t123 134.5t160.5 89.5t181.5 45.5l21 143h135zM664 899l38 287q-150 -31 -165 -139q-4 -29 1.5 -52.5t15.5 -37.5t28 -25.5t30 -16t30.5 -10t21.5 -6.5zM752 569l-43 -307q76 14 131 51t63 101q4 32 -2.5 55t-26 39t-37 25
t-49.5 22z" />
    <glyph glyph-name="percent" unicode="%" horiz-adv-x="1857" 
d="M1094 383q25 169 159 287t301 118q168 0 270 -118.5t77 -286.5q-15 -111 -82.5 -205t-168 -148.5t-210.5 -54.5q-167 0 -268 119.5t-78 288.5zM1692 383q12 82 -36 139.5t-130 57.5q-81 0 -146 -57.5t-77 -139.5q-11 -84 37.5 -141.5t129.5 -57.5q82 0 147 58t75 141z
M160 1069q25 169 159.5 287.5t301.5 118.5q168 0 269.5 -119t76.5 -287q-23 -169 -157.5 -287t-301.5 -118t-269 118t-79 287zM758 1069q12 82 -36 139.5t-130 57.5q-81 0 -146 -57.5t-77 -139.5q-11 -82 38 -139.5t130 -57.5q82 0 146 57.5t75 139.5zM434 23l1039 1493
l157 -97l-1052 -1485z" />
    <glyph glyph-name="ampersand" unicode="&#x26;" horiz-adv-x="1554" 
d="M1628 748l-362 -406l276 -342h-395l-103 137q-191 -174 -450 -174q-100 0 -187 27.5t-152.5 79.5t-97 137t-16.5 190q20 136 122 244t241 152q-71 90 -99 158.5t-14 166.5q13 95 61 167.5t118.5 115.5t152.5 64.5t172 21.5q85 0 157 -22t125.5 -64.5t78 -112t12.5 -158.5
q-18 -121 -106 -217.5t-216 -158.5l158 -199l168 193h356zM856 1241q-61 0 -106 -37t-54 -98q-5 -33 12.5 -70.5t34.5 -58.5t48 -53q179 95 190 186q9 61 -27.5 96t-97.5 35zM887 340l-217 278q-94 -54 -127 -83q-58 -53 -68 -123q-10 -77 41 -128t129 -51q64 0 119 27
t123 80z" />
    <glyph glyph-name="quotesingle" unicode="'" horiz-adv-x="606" 
d="M297 872l82 578h258l-82 -578h-258z" />
    <glyph glyph-name="parenleft" unicode="(" horiz-adv-x="643" 
d="M600 1499l193 -123q-168 -217 -256 -390.5t-119 -395.5q-13 -94 -13 -179.5t10.5 -159t34 -151t52.5 -146t71 -151.5l-229 -122l-2 8q-116 217 -160 436.5t-10 464.5q36 245 141 465t281 436z" />
    <glyph glyph-name="parenright" unicode=")" horiz-adv-x="643" 
d="M209 -319l-193 122q111 144 179 252t120.5 245t73.5 290q32 223 -6.5 398t-146.5 388l229 123l2 -8q117 -217 160.5 -437t7.5 -464q-34 -245 -139 -465t-281 -436z" />
    <glyph glyph-name="asterisk" unicode="*" horiz-adv-x="987" 
d="M805 1450l-41 -283l280 88l35 -194l-280 -86l137 -234l-188 -125l-140 236l-196 -225l-148 125l203 223l-260 94l94 195l254 -97l41 283h209z" />
    <glyph glyph-name="plus" unicode="+" horiz-adv-x="1363" 
d="M190 492l35 258h432l62 432h258l-62 -432h433l-35 -258h-432l-62 -433h-258l62 433h-433z" />
    <glyph glyph-name="comma" unicode="," horiz-adv-x="606" 
d="M0 -246l233 578h295l-266 -578h-262z" />
    <glyph glyph-name="hyphen" unicode="-" horiz-adv-x="606" 
d="M643 633l-33 -246h-504l33 246h504z" />
    <glyph glyph-name="period" unicode="." horiz-adv-x="606" 
d="M139 176q10 78 73.5 133.5t141.5 55.5t125.5 -55.5t36.5 -133.5q-10 -78 -73.5 -133t-141.5 -55t-125.5 55t-36.5 133z" />
    <glyph glyph-name="slash" unicode="/" horiz-adv-x="833" 
d="M-12 -37l837 1596l224 -72l-838 -1596z" />
    <glyph glyph-name="zero" unicode="0" horiz-adv-x="1212" 
d="M170 725q11 77 28 150t45 149t64 141t87 123t111.5 99t139 64.5t168.5 23.5t162 -24t120.5 -64.5t83.5 -98.5t53 -123t24.5 -141t4 -148.5t-13.5 -150.5q-16 -111 -44.5 -211t-80.5 -201t-121 -174t-172 -118.5t-227 -45.5q-104 0 -184.5 31t-130 87.5t-81 127t-42 157.5
t-9 171.5t14.5 175.5zM477 725q-71 -467 166 -467q46 0 85 18.5t66.5 46.5t51 72t37.5 81.5t26.5 90t18 84t12.5 74.5q5 37 7.5 64.5t6 72t1 78.5t-7.5 75t-18.5 70t-32.5 55t-50.5 39t-71.5 13q-236 0 -297 -467z" />
    <glyph glyph-name="one" unicode="1" horiz-adv-x="1212" 
d="M590 0l155 1106l-327 -256l-146 201l531 399h287l-205 -1450h-295z" />
    <glyph glyph-name="two" unicode="2" horiz-adv-x="1212" 
d="M100 0l45 326l635 505q36 29 52.5 43.5t44.5 43t42.5 57t18.5 59.5q10 71 -36 114.5t-120 43.5q-82 0 -139.5 -51.5t-75.5 -132.5l-303 22q29 146 111.5 247.5t200 149.5t262.5 48q100 0 181 -28t137 -81t80 -137.5t9 -190.5q-19 -130 -79.5 -219t-164.5 -170l-493 -379
h643l-39 -270h-1012z" />
    <glyph glyph-name="three" unicode="3" horiz-adv-x="1212" 
d="M528 612l37 267h101q235 0 256 161q9 65 -36.5 108.5t-121.5 43.5q-70 0 -123 -38t-76 -97l-329 69q48 122 136.5 202t194.5 113.5t234 33.5q99 0 182.5 -24.5t145.5 -72.5t91 -127t15 -180q-18 -122 -95 -207.5t-198 -109.5l-2 -6q125 -17 184.5 -112.5t40.5 -225.5
q-20 -141 -106 -241t-208.5 -147t-268.5 -47q-202 0 -326 93.5t-141 281.5l334 76q10 -168 192 -168q97 0 153.5 50.5t67.5 135.5q7 47 -6 80t-34.5 50t-64 26t-73.5 10.5t-84 1.5h-72z" />
    <glyph glyph-name="four" unicode="4" horiz-adv-x="1212" 
d="M682 0l41 291h-633l37 258l719 901h336l-127 -901h186l-37 -258h-186l-41 -291h-295zM760 549l69 500h-4l-391 -500h326z" />
    <glyph glyph-name="five" unicode="5" horiz-adv-x="1212" 
d="M1264 1450l-39 -270h-576l-37 -224q50 17 131 17q223 0 344 -129.5t91 -349.5q-23 -160 -112.5 -279t-222.5 -179.5t-292 -60.5q-189 0 -301.5 94t-134.5 277l331 74q2 -79 49 -126.5t126 -47.5q97 0 164 61t81 156q8 55 -6 97.5t-42 69t-70.5 43t-87 23t-95.5 6.5
q-146 0 -307 -53l129 801h877z" />
    <glyph glyph-name="six" unicode="6" horiz-adv-x="1212" 
d="M1133 1450l-414 -518q61 14 102 14q133 0 229 -63t136.5 -171t21.5 -239q-20 -146 -108 -260.5t-219.5 -176t-282.5 -61.5q-231 0 -366 138.5t-105 359.5q9 61 28 118.5t37 97.5t54.5 95.5t56 82t66.5 87.5l389 496h375zM903 485q14 99 -42.5 163.5t-158.5 64.5
t-177 -64.5t-89 -163.5t43.5 -163t159.5 -64t176 64t88 163z" />
    <glyph glyph-name="seven" unicode="7" horiz-adv-x="1212" 
d="M199 0l757 1167h-716l41 283h1060l-38 -270l-746 -1180h-358z" />
    <glyph glyph-name="eight" unicode="8" horiz-adv-x="1212" 
d="M272 1075q27 191 179 295.5t362 104.5q136 0 238 -43.5t156 -135.5t36 -221q-17 -119 -93.5 -203t-197.5 -118l-2 -4q126 -35 183.5 -126.5t37.5 -226.5q-11 -82 -48 -151.5t-92 -118.5t-124.5 -84t-146.5 -51.5t-158 -16.5q-102 0 -189 27t-151 78t-94 133t-16 184
q20 135 102 226.5t217 126.5l2 4q-113 34 -165.5 118.5t-35.5 202.5zM573 1032q-9 -69 34.5 -115.5t121.5 -46.5t135 46.5t66 115.5q9 67 -34.5 113.5t-121.5 46.5t-135 -46.5t-66 -113.5zM465 440q-11 -76 39 -129t139 -53t152.5 52.5t74.5 129.5q11 78 -38 131.5
t-138 53.5t-153.5 -53.5t-75.5 -131.5z" />
    <glyph glyph-name="nine" unicode="9" horiz-adv-x="1212" 
d="M285 0l413 518q-61 -14 -102 -14q-201 0 -309 136t-80 337q32 221 205.5 359.5t404.5 138.5q151 0 265.5 -61.5t170.5 -176t35 -260.5q-10 -75 -31.5 -139.5t-60 -128.5t-66 -103t-83.5 -110l-388 -496h-374zM512 965q-14 -99 43.5 -163.5t159.5 -64.5t176 64.5t88 163.5
t-42.5 163t-158.5 64t-177 -64t-89 -163z" />
    <glyph glyph-name="colon" unicode=":" horiz-adv-x="606" 
d="M139 176q10 78 73.5 133.5t141.5 55.5t125.5 -55.5t36.5 -133.5q-10 -78 -73.5 -133t-141.5 -55t-125.5 55t-36.5 133zM231 831q10 78 73.5 133.5t141.5 55.5t125.5 -55.5t36.5 -133.5q-10 -78 -73.5 -133t-141.5 -55t-125.5 55t-36.5 133z" />
    <glyph glyph-name="semicolon" unicode=";" horiz-adv-x="606" 
d="M0 -246l233 578h295l-266 -578h-262zM231 831q10 78 73.5 133.5t141.5 55.5t125.5 -55.5t36.5 -133.5q-10 -78 -73.5 -133t-141.5 -55t-125.5 55t-36.5 133z" />
    <glyph glyph-name="less" unicode="&#x3c;" horiz-adv-x="1363" 
d="M1362 1155l-39 -278l-684 -254l-2 -5l614 -253l-39 -279l-979 406l35 258z" />
    <glyph glyph-name="equal" unicode="=" horiz-adv-x="1363" 
d="M217 688l37 258h1122l-37 -258h-1122zM162 295l37 258h1122l-37 -258h-1122z" />
    <glyph glyph-name="greater" unicode="&#x3e;" horiz-adv-x="1363" 
d="M176 86l39 279l684 253l2 5l-614 254l39 278l979 -405l-35 -258z" />
    <glyph glyph-name="question" unicode="?" horiz-adv-x="1138" 
d="M510 479l12 90q17 117 99 185q39 33 94.5 77t84.5 68t60.5 54t46.5 55.5t19 52.5q9 66 -27 104.5t-100 38.5q-91 0 -151.5 -51.5t-78.5 -130.5l-311 20q50 213 203 329t370 116q95 0 174 -26.5t135.5 -76t82 -127.5t12.5 -174q-15 -116 -81 -201.5t-228 -201.5
q-90 -62 -101 -141l-8 -60h-307zM432 176q10 78 73.5 133.5t141.5 55.5t125.5 -55.5t36.5 -133.5q-10 -78 -73.5 -133t-141.5 -55t-125.5 55t-36.5 133z" />
    <glyph glyph-name="at" unicode="@" horiz-adv-x="1638" 
d="M1077 745q12 85 -19.5 137t-105.5 52q-92 0 -158.5 -73t-80.5 -181q-25 -182 114 -182q61 0 108.5 22t75.5 60t43.5 78.5t22.5 86.5zM1393 1094l-133 -404q-32 -105 -37 -135q-7 -57 47 -57q71 0 134 78t85 227q34 239 -95 369.5t-370 130.5q-253 0 -432 -163t-215 -417
q-19 -132 11 -240.5t100 -182t175 -113.5t234 -40q229 0 406 125h225q-129 -149 -306.5 -229t-367.5 -80q-162 0 -299.5 57t-231 156t-136 241.5t-19.5 305.5q22 160 104 302.5t201 243.5t271.5 159.5t312.5 58.5q109 0 210 -28t185.5 -85t143.5 -136t84.5 -189t7.5 -236
q-13 -90 -42.5 -165t-66.5 -125.5t-84.5 -89.5t-92 -61t-92.5 -36t-82.5 -18.5t-64.5 -4.5q-80 0 -116 33t-31 78h-4q-123 -111 -277 -111q-132 0 -201 96t-47 248q13 90 54 173t101.5 147.5t144.5 102.5t176 38q83 0 132 -27.5t72 -89.5h4l29 93h193z" />
    <glyph glyph-name="A" unicode="A" horiz-adv-x="1517" 
d="M-2 0l831 1450h265l426 -1450h-361l-82 307h-563l-164 -307h-352zM1008 578l-115 450l-240 -450h355z" />
    <glyph glyph-name="B" unicode="B" horiz-adv-x="1327" 
d="M147 0l205 1450h541q84 0 152 -8t137.5 -31.5t113 -63t65.5 -107.5t9 -159q-17 -119 -95 -201t-200 -118v-4q140 -19 214 -116.5t54 -238.5q-12 -88 -54.5 -158t-101.5 -115t-135 -75t-153 -42.5t-158 -12.5h-594zM633 1180l-43 -310h231q84 0 148 38.5t75 119.5
q6 43 -9 74.5t-45 47.5t-64.5 23t-75.5 7h-217zM551 600l-45 -330h287q55 0 102.5 15t86 55t46.5 100q6 39 -7 69t-36.5 47t-58.5 27t-66.5 13.5t-66.5 3.5h-242z" />
    <glyph glyph-name="C" unicode="C" horiz-adv-x="1402" 
d="M1520 1274l-273 -201q-83 119 -258 119q-182 0 -319.5 -132.5t-165.5 -334.5q-29 -201 70.5 -334t273.5 -133q96 0 178 41t141 115l240 -199q-105 -124 -254.5 -188t-306.5 -64q-169 0 -305.5 54t-226.5 152t-128 241.5t-14 314.5q32 228 157.5 402.5t315.5 267t416 92.5
q137 0 263 -51.5t196 -161.5z" />
    <glyph glyph-name="D" unicode="D" horiz-adv-x="1554" 
d="M147 0l205 1450h479q144 0 265.5 -24.5t223 -80t167.5 -138.5t93 -207t5 -279q-19 -137 -78.5 -254.5t-147.5 -202.5t-199 -145t-235.5 -89.5t-254.5 -29.5h-523zM629 1155l-121 -860h166q116 0 210.5 23t173.5 73.5t130.5 138t68.5 207.5q14 104 -14 185t-90 131
t-147.5 76t-188.5 26h-188z" />
    <glyph glyph-name="E" unicode="E" horiz-adv-x="1290" 
d="M160 0l205 1450h985l-43 -295h-666l-37 -270h629l-43 -295h-629l-41 -295h703l-41 -295h-1022z" />
    <glyph glyph-name="F" unicode="F" horiz-adv-x="1214" 
d="M160 0l205 1450h972l-43 -295h-653l-41 -295h604l-41 -295h-604l-80 -565h-319z" />
    <glyph glyph-name="G" unicode="G" horiz-adv-x="1593" 
d="M1581 860l-106 -758q-288 -139 -629 -139q-169 0 -305.5 54t-226.5 152t-128 241.5t-14 314.5q32 228 157.5 402.5t315.5 267t416 92.5q378 0 551 -187l-260 -245q-56 69 -134.5 103t-197.5 34q-202 0 -345 -131.5t-171 -335.5q-30 -204 76.5 -335.5t308.5 -131.5
q167 0 311 72l33 235h-260l41 295h567z" />
    <glyph glyph-name="H" unicode="H" horiz-adv-x="1554" 
d="M147 0l205 1450h320l-78 -541h620l78 541h320l-205 -1450h-320l89 627h-621l-88 -627h-320z" />
    <glyph glyph-name="I" unicode="I" horiz-adv-x="606" 
d="M143 0l205 1450h320l-205 -1450h-320z" />
    <glyph glyph-name="J" unicode="J" horiz-adv-x="1024" 
d="M1102 1450l-137 -965q-12 -88 -32 -158t-60 -140.5t-96.5 -117.5t-145.5 -76.5t-203 -29.5q-177 0 -281 84.5t-114 253.5l303 72q-1 -52 35.5 -89.5t89.5 -37.5q31 0 57 10t43.5 24.5t32 40t23 45t16 53t10.5 51.5t8 50l131 930h320z" />
    <glyph glyph-name="K" unicode="K" horiz-adv-x="1478" 
d="M160 0l205 1450h319l-86 -602l649 602h418l-741 -674l592 -776h-447l-494 688l-96 -688h-319z" />
    <glyph glyph-name="L" unicode="L" horiz-adv-x="1099" 
d="M160 0l205 1450h319l-164 -1155h592l-41 -295h-911z" />
    <glyph glyph-name="M" unicode="M" horiz-adv-x="1933" 
d="M147 0l205 1450h484l200 -946h4l469 946h482l-205 -1450h-320l156 1112h-4l-537 -1112h-243l-211 1112h-4l-156 -1112h-320z" />
    <glyph glyph-name="N" unicode="N" horiz-adv-x="1669" 
d="M147 0l205 1450h434l474 -1008h4l143 1008h319l-204 -1450h-418l-488 1032h-4l-145 -1032h-320z" />
    <glyph glyph-name="O" unicode="O" horiz-adv-x="1703" 
d="M172 725q32 228 157.5 402.5t315.5 267t416 92.5q169 0 306 -54t227 -152t128.5 -241.5t14.5 -314.5q-32 -228 -158 -402.5t-316.5 -267t-416.5 -92.5q-169 0 -305.5 54t-226.5 152t-128 241.5t-14 314.5zM504 725q-30 -204 76.5 -335.5t308.5 -131.5t344 131t172 336
q28 205 -77.5 336t-307.5 131t-345 -131.5t-171 -335.5z" />
    <glyph glyph-name="P" unicode="P" horiz-adv-x="1290" 
d="M147 0l205 1450h539q95 0 171.5 -12.5t143.5 -43.5t109 -80t59.5 -126.5t3.5 -177.5q-62 -445 -598 -445h-233l-80 -565h-320zM633 1180l-49 -344h213q62 0 112 14.5t89.5 55t48.5 104.5q8 53 -11 89t-60.5 52.5t-83 22.5t-95.5 6h-164z" />
    <glyph glyph-name="Q" unicode="Q" horiz-adv-x="1744" 
d="M1769 246l-34 -246h-879q-170 0 -307 51t-228.5 145t-131 234.5t-15.5 312.5q22 161 102.5 300.5t198.5 236.5t268 152t310 55t294.5 -55.5t224.5 -152.5t131 -236.5t19 -299.5q-23 -163 -115 -296.5t-243 -196.5v-4h405zM506 743q-26 -187 85 -317.5t294 -130.5
q120 0 230.5 59.5t184.5 162.5t91 226q26 187 -85 318t-294 131t-331.5 -131t-174.5 -318z" />
    <glyph glyph-name="R" unicode="R" horiz-adv-x="1327" 
d="M147 0l205 1450h561q93 0 169.5 -13t142.5 -45t108 -81t60 -125.5t4 -175.5q-22 -156 -118 -263.5t-251 -134.5l283 -612h-383l-221 580h-158l-82 -580h-320zM633 1180l-47 -330h188q32 0 52.5 0.5t52.5 4t53 9.5t46.5 18t41.5 29t28.5 42.5t16.5 58.5q7 52 -9 87
t-52 51.5t-74 23t-88 6.5h-209z" />
    <glyph glyph-name="S" unicode="S" horiz-adv-x="1175" 
d="M1272 1335l-254 -239q-29 46 -91 71t-126 25q-81 0 -153.5 -38t-82.5 -112q-6 -42 12 -73t54 -51t83.5 -36t100.5 -32.5t106 -36t98.5 -50.5t78.5 -72t47 -105.5t2 -145.5q-16 -118 -74.5 -210.5t-144.5 -150t-190 -87t-218 -29.5q-290 0 -461 182l263 250
q39 -64 109.5 -100.5t150.5 -36.5q86 0 158.5 40t82.5 112q7 53 -25 91t-88.5 61.5t-126 45t-137.5 51.5t-122 71.5t-81.5 114.5t-13.5 171q13 90 53.5 167t101 132.5t136 94.5t159 58t169.5 19q272 0 424 -152z" />
    <glyph glyph-name="T" unicode="T" horiz-adv-x="1175" 
d="M428 0l164 1167h-414l41 283h1147l-41 -283h-414l-163 -1167h-320z" />
    <glyph glyph-name="U" unicode="U" horiz-adv-x="1517" 
d="M1575 1450l-127 -891q-24 -173 -110.5 -306t-237.5 -211.5t-346 -78.5q-148 0 -259 45t-175 125t-88.5 188.5t-6.5 237.5l127 891h320l-125 -879q-19 -134 52 -223.5t198 -89.5q125 0 219.5 89.5t113.5 223.5l125 879h320z" />
    <glyph glyph-name="V" unicode="V" horiz-adv-x="1441" 
d="M584 0l-375 1450h364l224 -950h4l499 950h342l-802 -1450h-256z" />
    <glyph glyph-name="W" unicode="W" horiz-adv-x="2048" 
d="M426 0l-225 1450h348l100 -930h4l434 930h297l166 -954h4l379 954h324l-629 -1450h-285l-178 1004h-4l-461 -1004h-274z" />
    <glyph glyph-name="X" unicode="X" horiz-adv-x="1478" 
d="M0 0l614 758l-381 692h402l237 -508l369 508h387l-567 -686l418 -764h-402l-272 584l-426 -584h-379z" />
    <glyph glyph-name="Y" unicode="Y" horiz-adv-x="1327" 
d="M504 0l86 618l-426 832h397l230 -543l403 543h379l-664 -832l-86 -618h-319z" />
    <glyph glyph-name="Z" unicode="Z" horiz-adv-x="1290" 
d="M72 0l41 295l858 872h-709l41 283h1096l-41 -283l-844 -872h746l-41 -295h-1147z" />
    <glyph glyph-name="bracketleft" unicode="[" horiz-adv-x="606" 
d="M776 1499l-26 -184h-185l-203 -1450h185l-27 -184h-430l256 1818h430z" />
    <glyph glyph-name="backslash" unicode="\" horiz-adv-x="833" 
d="M834 -37l-240 -72l-391 1596l243 72z" />
    <glyph glyph-name="bracketright" unicode="]" horiz-adv-x="606" 
d="M-4 -319l27 184h184l203 1450h-185l27 184h430l-256 -1818h-430z" />
    <glyph glyph-name="asciicircum" unicode="^" horiz-adv-x="1363" 
d="M262 702l475 748h299l262 -748h-290l-158 488l-299 -488h-289z" />
    <glyph glyph-name="underscore" unicode="_" horiz-adv-x="1024" 
d="M987 -256h-1024l14 102h1024z" />
    <glyph glyph-name="grave" unicode="`" 
d="M473 1450l164 -295h-270l-312 295h418z" />
    <glyph glyph-name="a" unicode="a" horiz-adv-x="1099" 
d="M733 0l19 125h-4q-60 -76 -149 -113t-189 -37q-148 0 -239.5 82t-72.5 226q10 71 43.5 127.5t75.5 92.5t107 62t119 39t132.5 20t126 8t119.5 1q12 80 -38 129t-132 49q-144 0 -266 -119l-141 168q93 78 214.5 119t246.5 41q175 0 268 -59.5t114.5 -173.5t-0.5 -281
l-71 -506h-283zM795 436h-76q-305 0 -324 -143q-7 -52 33.5 -80.5t97.5 -28.5q97 0 172 49.5t86 137.5z" />
    <glyph glyph-name="b" unicode="b" horiz-adv-x="1290" 
d="M137 0l217 1548h308l-93 -659h4q115 131 334 131q83 0 152 -28.5t115.5 -78.5t78 -117.5t38 -145t-2.5 -161.5q-32 -227 -187.5 -370.5t-375.5 -143.5q-97 0 -174.5 47.5t-108.5 108.5h-4l-18 -131h-283zM489 498q-15 -114 41 -183t170 -69t190 69t91 183t-41 183
t-170 69t-190 -69t-91 -183z" />
    <glyph glyph-name="c" unicode="c" horiz-adv-x="987" 
d="M1110 887l-233 -213q-19 33 -57.5 54.5t-84.5 21.5q-114 0 -189.5 -69t-90.5 -183t41 -183t170 -69q85 0 161 76l172 -213q-77 -69 -176 -101.5t-196 -32.5q-115 0 -211 37.5t-161 104.5t-95 166t-13 215q22 155 113.5 275t225.5 183.5t288 63.5q97 0 188 -32t148 -101z
" />
    <glyph glyph-name="d" unicode="d" horiz-adv-x="1290" 
d="M1370 1548l-217 -1548h-283l19 131h-4q-48 -60 -139.5 -108t-188.5 -48q-220 0 -334 143.5t-82 370.5q15 104 60 199.5t112.5 169.5t160.5 118t196 44q222 0 297 -131h4l92 659h307zM940 498q15 114 -41 183t-170 69t-189.5 -69t-90.5 -183t40.5 -183t169.5 -69t190 69
t91 183z" />
    <glyph glyph-name="e" unicode="e" horiz-adv-x="1175" 
d="M883 330l192 -158q-87 -93 -207 -145t-241 -52q-115 0 -211 37.5t-161 104.5t-95 166t-13 215q22 155 113.5 275t225.5 183.5t288 63.5q215 0 321 -142t72 -380l-12 -97h-713q6 -88 60 -140t143 -52q133 0 238 121zM471 610h406q12 78 -34 133.5t-128 55.5
q-96 0 -162 -56t-82 -133z" />
    <glyph glyph-name="f" unicode="f" horiz-adv-x="757" 
d="M215 0l104 750h-202l35 245h202l25 176q10 71 26 125.5t48.5 109t79 89.5t121 56.5t171.5 21.5q104 0 179 -19l-52 -260q-58 21 -98 21q-78 0 -117.5 -34t-52.5 -128l-22 -158h227l-35 -245h-227l-105 -750h-307z" />
    <glyph glyph-name="g" unicode="g" horiz-adv-x="1290" 
d="M1292 995l-127 -911q-40 -283 -205 -429.5t-452 -146.5q-318 0 -479 146l207 254q132 -129 305 -129q135 0 214 67t95 177l12 96h-4q-57 -67 -139 -99t-160 -32q-220 0 -334.5 143.5t-83.5 370.5q20 134 90 251t186.5 192t252.5 75q120 0 202.5 -47t114.5 -109h4l19 131
h282zM451 504q-14 -99 47.5 -172.5t163.5 -73.5q103 0 184.5 73.5t95.5 172.5q12 99 -49.5 172.5t-163.5 73.5q-103 0 -184.5 -74t-93.5 -172z" />
    <glyph glyph-name="h" unicode="h" horiz-adv-x="1175" 
d="M326 1548h307l-96 -688h4q32 64 113.5 112t187.5 48q91 0 154 -24t97.5 -64t50 -103t14.5 -128.5t-13 -151.5l-78 -549h-307l67 487q5 39 7.5 60.5t3.5 58t-6.5 57.5t-21 43.5t-40.5 33t-65 10.5q-57 0 -98.5 -20.5t-65.5 -59t-36 -79t-20 -95.5l-69 -496h-307z" />
    <glyph glyph-name="i" unicode="i" 
d="M113 0l139 995h307l-139 -995h-307zM272 1309q11 74 70.5 126t132.5 52q74 0 119 -52.5t35 -125.5q-11 -74 -70.5 -126.5t-132.5 -52.5q-74 0 -119 53t-35 126z" />
    <glyph glyph-name="j" unicode="j" 
d="M559 995l-149 -1069q-28 -203 -127.5 -310.5t-300.5 -107.5q-90 0 -142 17l56 272q35 -18 77 -18q30 0 54 14.5t37 33t23.5 51t14.5 51.5t9 51l141 1015h307zM272 1309q11 74 70.5 126t132.5 52q74 0 119 -52.5t35 -125.5q-11 -74 -70.5 -126.5t-132.5 -52.5
q-74 0 -119 53t-35 126z" />
    <glyph glyph-name="k" unicode="k" horiz-adv-x="1138" 
d="M109 0l217 1548h307l-133 -946l395 393h377l-457 -448l328 -547h-387l-264 504h-5l-71 -504h-307z" />
    <glyph glyph-name="l" unicode="l" 
d="M113 0l217 1548h307l-217 -1548h-307z" />
    <glyph glyph-name="m" unicode="m" horiz-adv-x="1781" 
d="M109 0l139 995h295l-19 -135h4q43 66 126 113t188 47q107 0 181 -44.5t101 -133.5q65 94 146.5 136t193.5 42q353 0 291 -432l-82 -588h-307l82 580q10 76 -16.5 123t-96.5 47q-184 0 -217 -224l-74 -526h-307l74 526q4 28 5 37t3 39t-0.5 44t-9.5 38t-19.5 35.5t-34 21
t-50.5 9.5q-57 0 -98.5 -20.5t-65.5 -59t-36 -79t-20 -95.5l-69 -496h-307z" />
    <glyph glyph-name="n" unicode="n" horiz-adv-x="1175" 
d="M109 0l139 995h295l-19 -135h4q43 66 126 113t188 47q91 0 154 -24t97.5 -64t50 -103t14.5 -128.5t-13 -151.5l-78 -549h-307l67 487q5 39 7.5 60.5t3.5 58t-6.5 57.5t-21 43.5t-40.5 33t-65 10.5q-57 0 -98.5 -20.5t-65.5 -59t-36 -79t-20 -95.5l-69 -496h-307z" />
    <glyph glyph-name="o" unicode="o" horiz-adv-x="1249" 
d="M141 498q22 155 113.5 275t225.5 183.5t288 63.5q115 0 210.5 -37.5t161 -104.5t95 -165.5t12.5 -214.5q-22 -155 -113 -275t-225.5 -184t-287.5 -64q-115 0 -211 37.5t-161 104.5t-95 166t-13 215zM449 498q-15 -114 40.5 -183t169.5 -69t190 69t91 183t-41 183t-170 69
t-189.5 -69t-90.5 -183z" />
    <glyph glyph-name="p" unicode="p" horiz-adv-x="1290" 
d="M72 -467l204 1462h283l-18 -131h4q48 61 139 108.5t188 47.5q220 0 334.5 -143.5t83.5 -370.5q-20 -140 -90.5 -260t-186.5 -195.5t-253 -75.5q-219 0 -297 131h-4l-80 -573h-307zM489 498q-15 -114 41 -183t170 -69t190 69t91 183t-41 183t-170 69t-190 -69t-91 -183z
" />
    <glyph glyph-name="q" unicode="q" horiz-adv-x="1290" 
d="M1292 995l-205 -1462h-307l80 573h-4q-112 -131 -334 -131q-103 0 -183.5 44t-127 118t-65 169.5t-3.5 199.5q31 227 186.5 370.5t375.5 143.5q97 0 174 -47.5t108 -108.5h4l19 131h282zM940 498q15 114 -41 183t-170 69t-189.5 -69t-90.5 -183t40.5 -183t169.5 -69
t190 69t91 183z" />
    <glyph glyph-name="r" unicode="r" horiz-adv-x="833" 
d="M109 0l139 995h307l-23 -159h5q65 93 139.5 138.5t173.5 45.5q66 0 100 -10l-39 -281q-72 21 -129 21q-68 0 -118.5 -16.5t-82.5 -43t-53.5 -72t-32.5 -91t-20 -111.5l-59 -416h-307z" />
    <glyph glyph-name="s" unicode="s" horiz-adv-x="948" 
d="M985 889l-215 -187q-57 84 -166 84q-45 0 -82 -20t-43 -61q-4 -29 22 -48t70.5 -30t98 -22t106 -31.5t94 -50.5t62.5 -86.5t10 -133.5q-13 -91 -63.5 -157.5t-124.5 -102t-153 -52t-165 -16.5q-114 0 -212.5 32.5t-157.5 103.5l215 206q73 -108 200 -108q59 0 102.5 17.5
t47.5 54.5q4 28 -15.5 47.5t-54.5 29.5t-80 21t-92 21t-90.5 32t-75.5 51.5t-47 81t-6 119.5q12 84 57 150t110 105.5t141 60t157 20.5q109 0 202 -31t148 -100z" />
    <glyph glyph-name="t" unicode="t" horiz-adv-x="833" 
d="M926 995l-35 -245h-270l-46 -332q-7 -54 -6 -95t31.5 -65.5t93.5 -24.5q93 0 129 29l-37 -256q-87 -31 -219 -31q-79 0 -141 17t-106.5 52t-63.5 94t-8 138l65 474h-196l35 245h196l43 295h307l-43 -295h271z" />
    <glyph glyph-name="u" unicode="u" horiz-adv-x="1175" 
d="M1206 995l-139 -995h-295l19 135h-5q-43 -66 -126 -113t-187 -47q-91 0 -154 24t-97.5 64.5t-49.5 102.5t-14 128t14 152l76 549h307l-68 -487q-5 -33 -7 -51.5t-3 -50t2 -50.5t11.5 -42.5t23 -36.5t39 -22t57.5 -9q57 0 98.5 20.5t65 59.5t35.5 79t20 95l70 495h307z
" />
    <glyph glyph-name="v" unicode="v" horiz-adv-x="1138" 
d="M416 0l-273 995h332l158 -676h4l328 676h309l-533 -995h-325z" />
    <glyph glyph-name="w" unicode="w" horiz-adv-x="1705" 
d="M354 0l-225 995h328l114 -624h4l259 624h335l97 -624h4l274 624h311l-493 -995h-303l-115 662h-4l-276 -662h-310z" />
    <glyph glyph-name="x" unicode="x" horiz-adv-x="1138" 
d="M-16 0l469 532l-269 463h363l139 -270l207 270h342l-387 -463l307 -532h-362l-170 332l-281 -332h-358z" />
    <glyph glyph-name="y" unicode="y" horiz-adv-x="1138" 
d="M1272 995l-613 -1157q-77 -143 -119 -195q-78 -96 -204 -122q-63 -13 -146 -13q-119 0 -223 37l76 252q68 -30 139 -30q41 0 72 8t51.5 18.5t41 36t32 44.5t33.5 60l28 58l-295 1003h332l164 -657h4l311 657h316z" />
    <glyph glyph-name="z" unicode="z" horiz-adv-x="1024" 
d="M70 0l43 307l577 443h-504l35 245h860l-41 -295l-604 -454h553l-35 -246h-884z" />
    <glyph glyph-name="braceleft" unicode="{" horiz-adv-x="757" 
d="M717 -86l-33 -233h-215q-117 0 -180 74t-41 225l49 352q5 36 -10.5 63t-39 41.5t-56 23t-55 11t-42.5 2.5l33 234q20 0 43.5 2.5t58 11t62.5 23t50.5 41.5t27.5 63l51 354q21 152 102.5 224.5t202.5 72.5h215l-33 -233h-100q-44 0 -74.5 -12t-46 -34t-21.5 -40.5
t-10 -44.5l-47 -330q-8 -54 -28 -94t-41 -61t-54 -34t-54.5 -17t-55.5 -7l-2 -4q16 -1 26.5 -2t27 -4t27 -6.5t25.5 -9.5t23.5 -14.5l20 -20t15.5 -26t10.5 -34t4 -42.5t-3.5 -52l-47 -332q-3 -20 -3.5 -35t4.5 -34.5t16.5 -31.5t36 -21t60.5 -9h101z" />
    <glyph glyph-name="bar" unicode="|" horiz-adv-x="854" 
d="M418 1690h225v-2253h-225v2253z" />
    <glyph glyph-name="braceright" unicode="}" horiz-adv-x="757" 
d="M207 1266l33 233h221q113 0 175 -74t40 -225l-49 -352q-5 -36 9 -63t37 -41.5t54.5 -23t54.5 -11t45 -2.5l-32 -234q-18 0 -37 -2t-46.5 -6.5t-52 -14.5t-47.5 -25t-38 -39t-19 -54l-51 -355q-21 -152 -102 -224t-203 -72h-215l32 233h101q44 0 74.5 12t45.5 34t21 40.5
t10 44.5l47 330q8 54 28 94t41 61t54.5 34t55 17t55.5 7l2 4q-16 1 -26.5 2t-27 4t-27 6.5t-25.5 9.5t-23.5 14.5l-20 20t-15.5 26t-10.5 34t-4 42.5t3.5 52l47 332q6 21 3 44t-11 42.5t-35.5 32t-71.5 12.5h-100z" />
    <glyph glyph-name="asciitilde" unicode="~" horiz-adv-x="1363" 
d="M1196 819l43 -221q-117 -176 -281 -176q-82 0 -219 65q-13 6 -41 20t-43.5 21t-37.5 16t-40 13t-34 4q-29 0 -56.5 -11t-56 -36.5t-43.5 -41t-45 -50.5l-43 221q117 176 281 176q82 0 219 -65q11 -5 41 -19.5t44.5 -21t38 -16t41 -13.5t33.5 -4q29 0 55.5 10.5t56 37.5
t42 40.5t45.5 50.5z" />
    <glyph glyph-name="uni00A0" unicode="&#xa0;" horiz-adv-x="606" 
 />
    <glyph glyph-name="exclamdown" unicode="&#xa1;" horiz-adv-x="909" 
d="M238 -455l135 971h307l-135 -971h-307zM758 819q-10 -78 -73.5 -133t-141.5 -55t-125.5 55t-36.5 133q10 78 73.5 133.5t141.5 55.5t125.5 -55.5t36.5 -133.5z" />
    <glyph glyph-name="cent" unicode="&#xa2;" horiz-adv-x="1212" 
d="M612 -166l19 141q-213 12 -324.5 159.5t-81.5 363.5t180 356t373 166l19 135h123l-19 -135q105 0 184.5 -30t149.5 -97l-225 -209q-64 78 -146 78l-73 -529q78 0 182 89l155 -220q-79 -68 -182.5 -97.5t-191.5 -29.5l-19 -141h-123zM668 233l73 529q-93 -18 -150 -90
t-71 -172q-13 -98 23.5 -168.5t124.5 -98.5z" />
    <glyph glyph-name="sterling" unicode="&#xa3;" horiz-adv-x="1212" 
d="M98 0l33 233h197l57 406h-197l29 209h197l20 145q13 93 58.5 178.5t117 153.5t176 109t224.5 41q274 0 409 -140l-235 -219q-36 40 -84 64t-90 24q-65 0 -116.5 -21.5t-83 -59t-50 -81t-25.5 -94.5l-14 -100h319l-28 -209h-320l-57 -406h518l-33 -233h-1022z" />
    <glyph glyph-name="currency" unicode="&#xa4;" horiz-adv-x="1212" 
d="M119 313l112 101q-79 136 -55 311q24 173 143 311l-86 101l140 120l88 -98q151 98 321 98q172 0 297 -98l113 98l106 -120l-114 -101q81 -137 57 -311q-24 -175 -145 -311l88 -101l-142 -120l-86 98q-151 -98 -323 -98q-170 0 -295 98l-115 -98zM446 725
q-17 -115 49 -194.5t175 -79.5t196.5 79.5t104.5 194.5q15 115 -49.5 194.5t-173.5 79.5q-110 0 -198.5 -79.5t-103.5 -194.5z" />
    <glyph glyph-name="yen" unicode="&#xa5;" horiz-adv-x="1212" 
d="M446 0l46 324h-347l29 196h346l12 98l-18 41h-321l28 197h205l-295 594h373l229 -541l385 541h373l-463 -594h205l-29 -197h-321l-31 -41l-12 -98h346l-29 -196h-346l-45 -324h-320z" />
    <glyph glyph-name="brokenbar" unicode="&#xa6;" horiz-adv-x="854" 
d="M418 1522h225v-789h-225v789zM418 393h225v-786h-225v786z" />
    <glyph glyph-name="section" unicode="&#xa7;" horiz-adv-x="1212" 
d="M1237 1264l-279 -148q-13 57 -61 91t-111 34q-54 0 -97 -28t-50 -80q-5 -36 18 -66.5t64.5 -53t95.5 -47.5t110.5 -47.5t109 -56t92.5 -71t59 -93.5t10 -123q-10 -83 -68.5 -155.5t-140.5 -110.5q47 -43 68 -107.5t10 -135.5q-13 -96 -70.5 -171t-139 -118t-170 -64.5
t-175.5 -21.5q-356 0 -442 258l280 129q8 -69 68.5 -105t136.5 -36q27 0 54 5t54.5 16t46.5 33t23 52q5 39 -24.5 70.5t-80 55.5t-113 49t-123.5 58t-109.5 74t-73.5 105.5t-14 144.5q28 193 221 303q-55 41 -81 102.5t-16 133.5q13 86 62 155t119.5 109.5t149.5 62
t159 21.5q70 0 133 -11t123 -35.5t105.5 -69.5t66.5 -107zM627 489l194 -96q75 42 88 125q11 90 -112 148l-224 112q-76 -42 -88 -121q-5 -33 4 -59t31.5 -45t43.5 -31.5t52 -27.5q7 -3 11 -5z" />
    <glyph glyph-name="dieresis" unicode="&#xa8;" 
d="M211 1143q-71 0 -112.5 52t-30.5 124q9 67 65 117.5t123 50.5q72 0 118.5 -48t37.5 -120q-11 -74 -68.5 -125t-132.5 -51zM637 1143q-71 0 -112.5 52t-30.5 124q9 67 65 117.5t123 50.5q72 0 118.5 -48t37.5 -120q-11 -74 -68.5 -125t-132.5 -51z" />
    <glyph glyph-name="copyright" unicode="&#xa9;" horiz-adv-x="1638" 
d="M1098 614h192q-41 -152 -155 -236.5t-254 -84.5q-126 0 -211.5 58.5t-119 157t-15.5 222.5q27 194 149.5 312t314.5 118q145 0 235 -77.5t91 -225.5h-192q-4 62 -43.5 90.5t-100.5 28.5q-97 0 -156 -64t-77 -178q-15 -115 28 -186.5t131 -71.5q70 0 119.5 33t63.5 104z
M160 725q22 155 102 296t196 243t265.5 162.5t304.5 60.5t287.5 -60.5t220 -162.5t128.5 -243t19 -296t-102.5 -296t-197 -243t-266 -162.5t-304.5 -60.5t-287 60.5t-219.5 162.5t-128 243t-18.5 296zM369 725q-22 -156 33 -289t171.5 -211t266.5 -78t288.5 78t231.5 211
t115 289t-34 289t-173 211t-267 78t-288 -78t-230 -211t-114 -289z" />
    <glyph glyph-name="ordfeminine" unicode="&#xaa;" horiz-adv-x="714" 
d="M596 883l10 75h-4q-28 -45 -82.5 -66.5t-120.5 -21.5q-96 0 -155.5 49t-48.5 134q6 43 27 77t48 56t68 38t76.5 24.5t83 13t78.5 5.5t73 1q5 39 -22.5 67.5t-77.5 28.5q-91 0 -172 -74l-94 101q128 96 299 96q166 0 220 -74.5t32 -226.5l-41 -303h-197zM639 1106l6 39
h-37q-191 0 -202 -84q-4 -31 18.5 -43t60.5 -12q58 0 103.5 31.5t50.5 68.5z" />
    <glyph glyph-name="guillemotleft" unicode="&#xab;" horiz-adv-x="1101" 
d="M670 864l-287 -354l188 -354l-204 -125l-258 479l393 479zM1165 864l-286 -354l188 -354l-205 -125l-258 479l393 479z" />
    <glyph glyph-name="logicalnot" unicode="&#xac;" horiz-adv-x="1363" 
d="M1026 291l55 397h-864l37 258h1122l-92 -655h-258z" />
    <glyph glyph-name="uni00AD" unicode="&#xad;" horiz-adv-x="606" 
d="M643 633l-33 -246h-504l33 246h504z" />
    <glyph glyph-name="registered" unicode="&#xae;" horiz-adv-x="1638" 
d="M573 334l113 799h283q41 0 70 -2t83 -15.5t86 -38.5t53 -77.5t11 -125.5q-28 -199 -217 -223l159 -317h-215l-139 307h-35l-43 -307h-209zM870 973l-24 -172h84q25 0 41.5 2t39 9.5t36.5 26t18 48.5q3 23 -3.5 40t-17 25.5t-28 13.5t-30.5 6t-32 1h-84zM160 725
q22 155 102 296t196 243t265.5 162.5t304.5 60.5t287.5 -60.5t220 -162.5t128.5 -243t19 -296t-102.5 -296t-197 -243t-266 -162.5t-304.5 -60.5t-287 60.5t-219.5 162.5t-128 243t-18.5 296zM369 725q-22 -156 33 -289t171.5 -211t266.5 -78t288.5 78t231.5 211t115 289
t-34 289t-173 211t-267 78t-288 -78t-230 -211t-114 -289z" />
    <glyph glyph-name="macron" unicode="&#xaf;" 
d="M813 1407l-29 -197h-696l29 197h696z" />
    <glyph glyph-name="degree" unicode="&#xb0;" horiz-adv-x="819" 
d="M543 942q75 0 134.5 52.5t70.5 127.5q10 75 -35.5 128t-120.5 53t-134.5 -53t-70.5 -128q-10 -75 35.5 -127.5t120.5 -52.5zM518 770q-146 0 -234.5 103t-68.5 249t137.5 249.5t263.5 103.5t235 -103.5t69 -249.5t-138 -249t-264 -103z" />
    <glyph glyph-name="plusminus" unicode="&#xb1;" horiz-adv-x="1363" 
d="M213 662l37 258h432l37 262h258l-37 -262h432l-37 -258h-432l-37 -263h-258l37 263h-432zM129 59l37 258h1122l-37 -258h-1122z" />
    <glyph glyph-name="twosuperior" unicode="&#xb2;" horiz-adv-x="788" 
d="M133 592l25 182l426 324q32 24 47.5 36t34.5 34.5t22 41.5q6 40 -25 60t-83 20q-58 0 -100.5 -31.5t-51.5 -78.5l-207 12q30 141 134.5 212t258.5 71q147 0 230.5 -65.5t66.5 -180.5q-7 -51 -18.5 -87t-35 -64t-43.5 -44.5t-60 -44.5l-318 -221l-2 -4h412l-23 -172h-690z
" />
    <glyph glyph-name="threesuperior" unicode="&#xb3;" horiz-adv-x="788" 
d="M428 958l25 172h69q152 0 164 93q4 32 -23.5 49.5t-80.5 17.5q-50 0 -89.5 -24t-56.5 -66l-219 41q94 234 389 234q142 0 230.5 -61t72.5 -173q-9 -74 -61 -125.5t-135 -64.5v-4q85 -10 127.5 -68.5t31.5 -136.5q-18 -126 -130 -194t-267 -68q-141 0 -227.5 58t-97.5 183
l229 45q10 -102 121 -102q139 0 153 98q4 27 -4.5 46t-22.5 28.5t-42 14.5t-48.5 6t-56.5 1h-51z" />
    <glyph glyph-name="acute" unicode="&#xb4;" 
d="M223 1155l250 295h418l-397 -295h-271z" />
    <glyph glyph-name="mu" unicode="&#xb5;" horiz-adv-x="1175" 
d="M1206 995l-139 -995h-295l19 135h-5q-43 -66 -126 -113t-187 -47q-31 0 -59 7l-64 -449h-307l205 1462h307l-68 -487q-5 -33 -7 -51.5t-3 -50t2 -50.5t11.5 -42.5t23 -36.5t39 -22t57.5 -9q57 0 98.5 20.5t65 59.5t35.5 79t20 95l70 495h307z" />
    <glyph glyph-name="paragraph" unicode="&#xb6;" horiz-adv-x="1269" 
d="M444 -272l142 1007q-221 0 -326 92t-82 258q13 86 48 151t84 105t118.5 65t142.5 34.5t164 9.5h619l-244 -1722h-221l215 1525h-223l-215 -1525h-222z" />
    <glyph glyph-name="periodcentered" unicode="&#xb7;" horiz-adv-x="606" 
d="M197 580q10 78 73.5 133t141.5 55t125 -55t36 -133q-10 -78 -73.5 -133.5t-141.5 -55.5t-125 55.5t-36 133.5z" />
    <glyph glyph-name="cedilla" unicode="&#xb8;" 
d="M344 0l-100 -123q53 0 91.5 -5.5t76.5 -22t55 -52.5t10 -90q-7 -53 -42 -94t-84 -62.5t-96.5 -32t-90.5 -10.5q-60 0 -127.5 17.5t-120.5 44.5l66 96q90 -35 153 -35q137 0 144 66q5 33 -25.5 51.5t-67.5 18.5q-29 0 -75 -17l-58 60l154 190h137z" />
    <glyph glyph-name="onesuperior" unicode="&#xb9;" horiz-adv-x="788" 
d="M459 592l90 649l-203 -154l-100 136l358 239h197l-121 -870h-221z" />
    <glyph glyph-name="ordmasculine" unicode="&#xba;" horiz-adv-x="813" 
d="M213 1178q20 137 134 223t267 86q154 0 246 -86t72 -223q-21 -142 -135 -225t-269 -83q-156 0 -246 83t-69 225zM422 1178q-6 -58 29 -97t102 -39t114.5 39.5t55.5 96.5q8 58 -28.5 97.5t-104.5 39.5q-67 0 -113.5 -39.5t-54.5 -97.5z" />
    <glyph glyph-name="guillemotright" unicode="&#xbb;" horiz-adv-x="1101" 
d="M575 156l287 354l-188 354l205 125l258 -479l-394 -479zM80 156l287 354l-189 354l205 125l258 -479l-393 -479z" />
    <glyph glyph-name="onequarter" unicode="&#xbc;" horiz-adv-x="1820" 
d="M1466 0l25 174h-428l22 160l484 536h241l-73 -524h116l-24 -172h-117l-24 -174h-222zM1516 346l38 279h-4l-241 -279h207zM401 592l91 649l-203 -154l-101 136l359 239h196l-120 -870h-222zM391 23l1039 1493l157 -97l-1052 -1485z" />
    <glyph glyph-name="onehalf" unicode="&#xbd;" horiz-adv-x="1820" 
d="M401 592l91 649l-203 -154l-101 136l359 239h196l-120 -870h-222zM1114 0l27 182l426 324q3 3 14.5 11t15.5 11.5t14 11.5t15 13t13 12.5t12 13t8.5 12.5t6.5 13.5t3 13.5q6 40 -25 60t-83 20q-57 0 -99 -31.5t-53 -78.5l-207 12q31 141 136 212t259 71
q147 0 230.5 -65.5t66.5 -180.5q-7 -51 -19.5 -87t-36 -64t-43.5 -44.5t-60 -44.5l-318 -221v-4h412l-25 -172h-690zM391 23l1039 1493l157 -97l-1052 -1485z" />
    <glyph glyph-name="threequarters" unicode="&#xbe;" horiz-adv-x="1820" 
d="M1475 0l24 174h-428l23 160l483 536h242l-74 -524h117l-25 -172h-117l-24 -174h-221zM1524 346l39 279h-4l-242 -279h207zM401 958l25 172h70q151 0 163 93q4 32 -23.5 49.5t-80.5 17.5q-50 0 -89 -24t-56 -66l-217 41q91 234 387 234q142 0 230.5 -61t72.5 -173
q-9 -73 -61.5 -125t-135.5 -65v-4q85 -10 128 -68.5t32 -136.5q-18 -126 -130 -194t-267 -68q-92 0 -160.5 23.5t-113 78.5t-52.5 139l229 45q10 -102 121 -102q140 0 154 98q4 27 -4.5 46t-22.5 28.5t-42 14.5t-48.5 6t-56.5 1h-52zM440 23l1039 1493l157 -97l-1052 -1485z
" />
    <glyph glyph-name="questiondown" unicode="&#xbf;" horiz-adv-x="1138" 
d="M768 516l-12 -90q-7 -61 -30.5 -104t-66.5 -80q-39 -33 -95 -77t-85 -68t-60.5 -54.5t-46.5 -56t-18 -52.5q-10 -66 26 -104.5t101 -38.5q91 0 150.5 51t77.5 131l313 -20q-52 -213 -205.5 -329t-370.5 -116q-127 0 -223.5 45t-147 138t-32.5 221q17 117 83 202.5
t228 200.5q88 62 99 142l8 59h307zM846 819q-10 -78 -73.5 -133t-141.5 -55t-125.5 55t-36.5 133q10 78 73.5 133.5t141.5 55.5t125.5 -55.5t36.5 -133.5z" />
    <glyph glyph-name="Agrave" unicode="&#xc0;" horiz-adv-x="1517" 
d="M-2 0l831 1450h265l426 -1450h-361l-82 307h-563l-164 -307h-352zM1008 578l-115 450l-240 -450h355zM1022 1849l166 -295h-270l-314 295h418z" />
    <glyph glyph-name="Aacute" unicode="&#xc1;" horiz-adv-x="1517" 
d="M-2 0l831 1450h265l426 -1450h-361l-82 307h-563l-164 -307h-352zM1008 578l-115 450l-240 -450h355zM774 1554l248 295h418l-396 -295h-270z" />
    <glyph glyph-name="Acircumflex" unicode="&#xc2;" horiz-adv-x="1517" 
d="M-2 0l831 1450h265l426 -1450h-361l-82 307h-563l-164 -307h-352zM1008 578l-115 450l-240 -450h355zM1386 1554h-282l-107 160l-149 -160h-277l285 295h334z" />
    <glyph glyph-name="Atilde" unicode="&#xc3;" horiz-adv-x="1517" 
d="M-2 0l831 1450h265l426 -1450h-361l-82 307h-563l-164 -307h-352zM1008 578l-115 450l-240 -450h355zM741 1567h-161q35 115 113.5 198.5t185.5 83.5q77 0 172 -43q75 -30 110 -30q56 0 101 73h159q-41 -131 -113 -206.5t-192 -75.5q-58 0 -155 43q-80 43 -123 43
q-32 0 -57.5 -25.5t-39.5 -60.5z" />
    <glyph glyph-name="Adieresis" unicode="&#xc4;" horiz-adv-x="1517" 
d="M-2 0l831 1450h265l426 -1450h-361l-82 307h-563l-164 -307h-352zM1008 578l-115 450l-240 -450h355zM762 1542q-71 0 -114 52.5t-32 123.5q9 67 65.5 117.5t123.5 50.5q72 0 119 -48t37 -120q-11 -74 -68 -125t-131 -51zM1188 1542q-71 0 -114 52.5t-32 123.5
q9 67 65.5 117.5t123.5 50.5q72 0 118.5 -48t36.5 -120q-11 -74 -67.5 -125t-130.5 -51z" />
    <glyph glyph-name="Aring" unicode="&#xc5;" horiz-adv-x="1517" 
d="M-2 0l831 1450h265l426 -1450h-361l-82 307h-563l-164 -307h-352zM1008 578l-115 450l-240 -450h355zM971 1497q-94 0 -151.5 66.5t-45.5 160.5q14 94 90 161t170 67t151.5 -67t43.5 -161q-12 -94 -88 -160.5t-170 -66.5zM897 1724q-6 -43 20.5 -73.5t69.5 -30.5t78 30.5
t41 73.5t-19.5 74t-68.5 31t-79 -31t-42 -74z" />
    <glyph glyph-name="AE" unicode="&#xc6;" horiz-adv-x="2123" 
d="M1094 0l43 307h-539l-238 -307h-391l1125 1450h1101l-43 -295h-577l-37 -270h528l-43 -295h-528l-41 -295h602l-41 -295h-921zM1176 578l79 577h-34l-447 -577h402z" />
    <glyph glyph-name="Ccedilla" unicode="&#xc7;" horiz-adv-x="1402" 
d="M1520 1274l-273 -201q-83 119 -258 119q-182 0 -319.5 -132.5t-165.5 -334.5q-29 -201 70.5 -334t273.5 -133q96 0 178 41t141 115l240 -199q-105 -124 -254.5 -188t-306.5 -64q-27 0 -37 2l-72 -88q42 0 73.5 -3t66.5 -13.5t56 -28t32.5 -49.5t5.5 -76q-7 -53 -42 -94
t-84 -62.5t-97 -32t-91 -10.5q-127 0 -247 62l65 96q90 -35 154 -35q136 0 143 66q5 33 -25 51.5t-67 18.5q-30 0 -76 -17l-57 60l133 167q-270 50 -410 249.5t-98 498.5q32 228 157.5 402.5t315.5 267t416 92.5q137 0 263 -51.5t196 -161.5z" />
    <glyph glyph-name="Egrave" unicode="&#xc8;" horiz-adv-x="1290" 
d="M160 0l205 1450h985l-43 -295h-666l-37 -270h629l-43 -295h-629l-41 -295h703l-41 -295h-1022zM907 1849l166 -295h-270l-314 295h418z" />
    <glyph glyph-name="Eacute" unicode="&#xc9;" horiz-adv-x="1290" 
d="M160 0l205 1450h985l-43 -295h-666l-37 -270h629l-43 -295h-629l-41 -295h703l-41 -295h-1022zM659 1554l248 295h418l-395 -295h-271z" />
    <glyph glyph-name="Ecircumflex" unicode="&#xca;" horiz-adv-x="1290" 
d="M160 0l205 1450h985l-43 -295h-666l-37 -270h629l-43 -295h-629l-41 -295h703l-41 -295h-1022zM1272 1554h-283l-106 160l-150 -160h-276l284 295h334z" />
    <glyph glyph-name="Edieresis" unicode="&#xcb;" horiz-adv-x="1290" 
d="M160 0l205 1450h985l-43 -295h-666l-37 -270h629l-43 -295h-629l-41 -295h703l-41 -295h-1022zM647 1542q-71 0 -113.5 52.5t-31.5 123.5q9 67 65 117.5t123 50.5q72 0 119 -48t37 -120q-11 -74 -68 -125t-131 -51zM1073 1542q-71 0 -113.5 52.5t-31.5 123.5
q9 67 65 117.5t123 50.5q72 0 119 -48t37 -120q-11 -74 -68 -125t-131 -51z" />
    <glyph glyph-name="Igrave" unicode="&#xcc;" horiz-adv-x="606" 
d="M143 0l205 1450h320l-205 -1450h-320zM565 1849l166 -295h-270l-314 295h418z" />
    <glyph glyph-name="Iacute" unicode="&#xcd;" horiz-adv-x="606" 
d="M143 0l205 1450h320l-205 -1450h-320zM317 1554l248 295h418l-395 -295h-271z" />
    <glyph glyph-name="Icircumflex" unicode="&#xce;" horiz-adv-x="606" 
d="M143 0l205 1450h320l-205 -1450h-320zM930 1554h-283l-106 160l-150 -160h-276l284 295h334z" />
    <glyph glyph-name="Idieresis" unicode="&#xcf;" horiz-adv-x="606" 
d="M143 0l205 1450h320l-205 -1450h-320zM305 1542q-71 0 -113.5 52.5t-31.5 123.5q9 67 65 117.5t123 50.5q72 0 119 -48t37 -120q-11 -74 -68 -125t-131 -51zM731 1542q-71 0 -113.5 52.5t-31.5 123.5q9 67 65 117.5t123 50.5q72 0 119 -48t37 -120q-11 -74 -68 -125
t-131 -51z" />
    <glyph glyph-name="Eth" unicode="&#xd0;" horiz-adv-x="1554" 
d="M629 1155l-41 -295h405l-28 -209h-406l-51 -356h166q116 0 210.5 23t173.5 73.5t130.5 138t68.5 207.5q14 104 -14 185t-90 131t-147.5 76t-188.5 26h-188zM147 0l93 651h-123l28 209h123l84 590h479q144 0 265.5 -24.5t223 -80t167.5 -138.5t93 -207t5 -279
q-19 -137 -78.5 -254.5t-147.5 -202.5t-199 -145t-235.5 -89.5t-254.5 -29.5h-523z" />
    <glyph glyph-name="Ntilde" unicode="&#xd1;" horiz-adv-x="1669" 
d="M147 0l205 1450h434l474 -1008h4l143 1008h319l-204 -1450h-418l-488 1032h-4l-145 -1032h-320zM817 1567h-162q35 115 113.5 198.5t185.5 83.5q77 0 172 -43q75 -30 111 -30q32 0 55 19t45 54h160q-41 -131 -113 -206.5t-192 -75.5q-59 0 -156 43q-80 43 -123 43
q-32 0 -57 -25.5t-39 -60.5z" />
    <glyph glyph-name="Ograve" unicode="&#xd2;" horiz-adv-x="1703" 
d="M172 725q32 228 157.5 402.5t315.5 267t416 92.5q169 0 306 -54t227 -152t128.5 -241.5t14.5 -314.5q-32 -228 -158 -402.5t-316.5 -267t-416.5 -92.5q-169 0 -305.5 54t-226.5 152t-128 241.5t-14 314.5zM504 725q-30 -204 76.5 -335.5t308.5 -131.5t344 131t172 336
q28 205 -77.5 336t-307.5 131t-345 -131.5t-171 -335.5zM1114 1849l166 -295h-270l-314 295h418z" />
    <glyph glyph-name="Oacute" unicode="&#xd3;" horiz-adv-x="1703" 
d="M172 725q32 228 157.5 402.5t315.5 267t416 92.5q169 0 306 -54t227 -152t128.5 -241.5t14.5 -314.5q-32 -228 -158 -402.5t-316.5 -267t-416.5 -92.5q-169 0 -305.5 54t-226.5 152t-128 241.5t-14 314.5zM504 725q-30 -204 76.5 -335.5t308.5 -131.5t344 131t172 336
q28 205 -77.5 336t-307.5 131t-345 -131.5t-171 -335.5zM866 1554l248 295h418l-395 -295h-271z" />
    <glyph glyph-name="Ocircumflex" unicode="&#xd4;" horiz-adv-x="1703" 
d="M172 725q32 228 157.5 402.5t315.5 267t416 92.5q169 0 306 -54t227 -152t128.5 -241.5t14.5 -314.5q-32 -228 -158 -402.5t-316.5 -267t-416.5 -92.5q-169 0 -305.5 54t-226.5 152t-128 241.5t-14 314.5zM504 725q-30 -204 76.5 -335.5t308.5 -131.5t344 131t172 336
q28 205 -77.5 336t-307.5 131t-345 -131.5t-171 -335.5zM1479 1554h-283l-106 160l-150 -160h-276l284 295h334z" />
    <glyph glyph-name="Otilde" unicode="&#xd5;" horiz-adv-x="1703" 
d="M172 725q32 228 157.5 402.5t315.5 267t416 92.5q169 0 306 -54t227 -152t128.5 -241.5t14.5 -314.5q-32 -228 -158 -402.5t-316.5 -267t-416.5 -92.5q-169 0 -305.5 54t-226.5 152t-128 241.5t-14 314.5zM504 725q-30 -204 76.5 -335.5t308.5 -131.5t344 131t172 336
q28 205 -77.5 336t-307.5 131t-345 -131.5t-171 -335.5zM834 1567h-162q35 115 113.5 198.5t185.5 83.5q77 0 172 -43q75 -30 110 -30q56 0 101 73h159q-41 -131 -113 -206.5t-192 -75.5q-58 0 -155 43q-80 43 -123 43q-32 0 -57 -25.5t-39 -60.5z" />
    <glyph glyph-name="Odieresis" unicode="&#xd6;" horiz-adv-x="1703" 
d="M172 725q32 228 157.5 402.5t315.5 267t416 92.5q169 0 306 -54t227 -152t128.5 -241.5t14.5 -314.5q-32 -228 -158 -402.5t-316.5 -267t-416.5 -92.5q-169 0 -305.5 54t-226.5 152t-128 241.5t-14 314.5zM504 725q-30 -204 76.5 -335.5t308.5 -131.5t344 131t172 336
q28 205 -77.5 336t-307.5 131t-345 -131.5t-171 -335.5zM854 1542q-71 0 -113.5 52.5t-31.5 123.5q9 67 65 117.5t123 50.5q72 0 119 -48t37 -120q-11 -74 -68 -125t-131 -51zM1280 1542q-71 0 -113.5 52.5t-31.5 123.5q9 67 65 117.5t123 50.5q72 0 119 -48t37 -120
q-11 -74 -68 -125t-131 -51z" />
    <glyph glyph-name="multiply" unicode="&#xd7;" horiz-adv-x="1363" 
d="M268 973l217 194l314 -358l401 356l158 -176l-406 -368l318 -355l-215 -190l-310 360l-413 -362l-158 176l410 371z" />
    <glyph glyph-name="Oslash" unicode="&#xd8;" horiz-adv-x="1703" 
d="M70 -6l219 209q-163 209 -117 522q32 228 157.5 402.5t315.5 267t416 92.5q268 0 446 -131l217 205l99 -101l-213 -200q173 -208 127 -535q-32 -228 -158 -402.5t-316.5 -267t-416.5 -92.5q-279 0 -457 139l-219 -206zM543 444l719 678q-98 70 -242 70
q-202 0 -345 -131.5t-171 -335.5q-24 -156 39 -281zM1356 1018l-721 -682q100 -78 254 -78q202 0 344 131t172 336q24 175 -49 293z" />
    <glyph glyph-name="Ugrave" unicode="&#xd9;" horiz-adv-x="1517" 
d="M1575 1450l-127 -891q-24 -173 -110.5 -306t-237.5 -211.5t-346 -78.5q-148 0 -259 45t-175 125t-88.5 188.5t-6.5 237.5l127 891h320l-125 -879q-19 -134 52 -223.5t198 -89.5q125 0 219.5 89.5t113.5 223.5l125 879h320zM1022 1849l166 -295h-270l-314 295h418z" />
    <glyph glyph-name="Uacute" unicode="&#xda;" horiz-adv-x="1517" 
d="M1575 1450l-127 -891q-24 -173 -110.5 -306t-237.5 -211.5t-346 -78.5q-148 0 -259 45t-175 125t-88.5 188.5t-6.5 237.5l127 891h320l-125 -879q-19 -134 52 -223.5t198 -89.5q125 0 219.5 89.5t113.5 223.5l125 879h320zM774 1554l248 295h418l-396 -295h-270z" />
    <glyph glyph-name="Ucircumflex" unicode="&#xdb;" horiz-adv-x="1517" 
d="M1575 1450l-127 -891q-24 -173 -110.5 -306t-237.5 -211.5t-346 -78.5q-148 0 -259 45t-175 125t-88.5 188.5t-6.5 237.5l127 891h320l-125 -879q-19 -134 52 -223.5t198 -89.5q125 0 219.5 89.5t113.5 223.5l125 879h320zM1386 1554h-282l-107 160l-149 -160h-277
l285 295h334z" />
    <glyph glyph-name="Udieresis" unicode="&#xdc;" horiz-adv-x="1517" 
d="M1575 1450l-127 -891q-24 -173 -110.5 -306t-237.5 -211.5t-346 -78.5q-148 0 -259 45t-175 125t-88.5 188.5t-6.5 237.5l127 891h320l-125 -879q-19 -134 52 -223.5t198 -89.5q125 0 219.5 89.5t113.5 223.5l125 879h320zM762 1542q-71 0 -114 52.5t-32 123.5
q9 67 65.5 117.5t123.5 50.5q72 0 119 -48t37 -120q-11 -74 -68 -125t-131 -51zM1188 1542q-71 0 -114 52.5t-32 123.5q9 67 65.5 117.5t123.5 50.5q72 0 118.5 -48t36.5 -120q-11 -74 -67.5 -125t-130.5 -51z" />
    <glyph glyph-name="Yacute" unicode="&#xdd;" horiz-adv-x="1327" 
d="M504 0l86 618l-426 832h397l230 -543l403 543h379l-664 -832l-86 -618h-319zM684 1610l250 295h418l-398 -295h-270z" />
    <glyph glyph-name="Thorn" unicode="&#xde;" horiz-adv-x="1290" 
d="M147 0l205 1450h320l-37 -258h219q95 0 171.5 -12.5t143.5 -43.5t109 -80t60.5 -126.5t4.5 -177.5q-64 -445 -600 -445h-233l-43 -307h-320zM596 922l-47 -344h213q97 0 166.5 40.5t83.5 133.5q7 53 -12.5 89t-61 52.5t-83 22.5t-95.5 6h-164z" />
    <glyph glyph-name="germandbls" unicode="&#xdf;" horiz-adv-x="1290" 
d="M109 0l147 1051q74 522 598 522q71 0 136 -13.5t122 -43.5t96.5 -73t58 -106t7.5 -139q-36 -244 -254 -328l-2 -4q153 -31 218.5 -144.5t41.5 -277.5q-29 -215 -183 -342t-370 -127q-91 0 -186 25l34 250q53 -17 99 -17q122 0 210.5 61.5t104.5 178.5q18 125 -49 187.5
t-195 62.5h-41l35 258h25q80 0 139.5 43t69.5 119q10 73 -39 116.5t-125 43.5q-94 0 -159 -54.5t-77 -146.5l-155 -1102h-307z" />
    <glyph glyph-name="agrave" unicode="&#xe0;" horiz-adv-x="1099" 
d="M733 0l19 125h-4q-60 -76 -149 -113t-189 -37q-148 0 -239.5 82t-72.5 226q10 71 43.5 127.5t75.5 92.5t107 62t119 39t132.5 20t126 8t119.5 1q12 80 -38 129t-132 49q-144 0 -266 -119l-141 168q93 78 214.5 119t246.5 41q175 0 268 -59.5t114.5 -173.5t-0.5 -281
l-71 -506h-283zM795 436h-76q-305 0 -324 -143q-7 -52 33.5 -80.5t97.5 -28.5q97 0 172 49.5t86 137.5zM758 1450l164 -295h-271l-311 295h418z" />
    <glyph glyph-name="aacute" unicode="&#xe1;" horiz-adv-x="1099" 
d="M733 0l19 125h-4q-60 -76 -149 -113t-189 -37q-148 0 -239.5 82t-72.5 226q10 71 43.5 127.5t75.5 92.5t107 62t119 39t132.5 20t126 8t119.5 1q12 80 -38 129t-132 49q-144 0 -266 -119l-141 168q93 78 214.5 119t246.5 41q175 0 268 -59.5t114.5 -173.5t-0.5 -281
l-71 -506h-283zM795 436h-76q-305 0 -324 -143q-7 -52 33.5 -80.5t97.5 -28.5q97 0 172 49.5t86 137.5zM508 1155l250 295h418l-398 -295h-270z" />
    <glyph glyph-name="acircumflex" unicode="&#xe2;" horiz-adv-x="1099" 
d="M733 0l19 125h-4q-60 -76 -149 -113t-189 -37q-148 0 -239.5 82t-72.5 226q10 71 43.5 127.5t75.5 92.5t107 62t119 39t132.5 20t126 8t119.5 1q12 80 -38 129t-132 49q-144 0 -266 -119l-141 168q93 78 214.5 119t246.5 41q175 0 268 -59.5t114.5 -173.5t-0.5 -281
l-71 -506h-283zM795 436h-76q-305 0 -324 -143q-7 -52 33.5 -80.5t97.5 -28.5q97 0 172 49.5t86 137.5zM1120 1155h-282l-107 160l-149 -160h-277l287 295h334z" />
    <glyph glyph-name="atilde" unicode="&#xe3;" horiz-adv-x="1099" 
d="M733 0l19 125h-4q-60 -76 -149 -113t-189 -37q-148 0 -239.5 82t-72.5 226q10 71 43.5 127.5t75.5 92.5t107 62t119 39t132.5 20t126 8t119.5 1q12 80 -38 129t-132 49q-144 0 -266 -119l-141 168q93 78 214.5 119t246.5 41q175 0 268 -59.5t114.5 -173.5t-0.5 -281
l-71 -506h-283zM795 436h-76q-305 0 -324 -143q-7 -52 33.5 -80.5t97.5 -28.5q97 0 172 49.5t86 137.5zM475 1167h-162q36 116 115 199.5t186 83.5q74 0 172 -43q5 -2 20.5 -8.5t22 -9t19.5 -6.5t24 -5.5t23 -1.5q57 0 102 74h160q-89 -283 -307 -283q-57 0 -154 43
q-80 43 -123 43q-58 0 -98 -86z" />
    <glyph glyph-name="adieresis" unicode="&#xe4;" horiz-adv-x="1099" 
d="M733 0l19 125h-4q-60 -76 -149 -113t-189 -37q-148 0 -239.5 82t-72.5 226q10 71 43.5 127.5t75.5 92.5t107 62t119 39t132.5 20t126 8t119.5 1q12 80 -38 129t-132 49q-144 0 -266 -119l-141 168q93 78 214.5 119t246.5 41q175 0 268 -59.5t114.5 -173.5t-0.5 -281
l-71 -506h-283zM795 436h-76q-305 0 -324 -143q-7 -52 33.5 -80.5t97.5 -28.5q97 0 172 49.5t86 137.5zM496 1143q-71 0 -113 52.5t-31 123.5q9 67 65.5 117.5t123.5 50.5q72 0 118 -48t37 -120q-11 -74 -68 -125t-132 -51zM922 1143q-71 0 -113 52.5t-31 123.5
q9 67 65.5 117.5t123.5 50.5q72 0 118 -48t37 -120q-11 -74 -68 -125t-132 -51z" />
    <glyph glyph-name="aring" unicode="&#xe5;" horiz-adv-x="1099" 
d="M733 0l19 125h-4q-60 -76 -149 -113t-189 -37q-148 0 -239.5 82t-72.5 226q10 71 43.5 127.5t75.5 92.5t107 62t119 39t132.5 20t126 8t119.5 1q12 80 -38 129t-132 49q-144 0 -266 -119l-141 168q93 78 214.5 119t246.5 41q175 0 268 -59.5t114.5 -173.5t-0.5 -281
l-71 -506h-283zM795 436h-76q-305 0 -324 -143q-7 -52 33.5 -80.5t97.5 -28.5q97 0 172 49.5t86 137.5zM709 1116q-94 0 -151.5 66.5t-45.5 160.5q14 94 90 161t170 67t151.5 -67t43.5 -161q-12 -94 -88 -160.5t-170 -66.5zM635 1343q-6 -43 20.5 -73.5t69.5 -30.5t78 30.5
t41 73.5t-20.5 74t-69.5 31t-78 -31t-41 -74z" />
    <glyph glyph-name="ae" unicode="&#xe6;" horiz-adv-x="1744" 
d="M385 692l-141 168q93 78 214.5 119t246.5 41q198 0 307 -121q68 59 159.5 90t190.5 31q215 0 321 -142t72 -380l-12 -97h-713q6 -88 60 -140t143 -52q132 0 237 121l193 -158q-87 -93 -207.5 -145t-241.5 -52q-282 0 -374 162q-139 -162 -430 -162q-148 0 -239.5 82
t-72.5 226q9 66 40.5 118.5t71.5 86t100 58t111 36.5t122.5 19t115 8t105.5 1h37q12 91 -28 146t-122 55q-144 0 -266 -119zM395 285q-16 -101 144 -101q203 0 233 217h-37q-36 0 -58 -0.5t-67 -3.5t-75.5 -10.5t-64 -19.5t-52.5 -33t-23 -49zM1059 610h405
q12 78 -33.5 133.5t-127.5 55.5q-96 0 -162 -56t-82 -133z" />
    <glyph glyph-name="ccedilla" unicode="&#xe7;" horiz-adv-x="987" 
d="M1110 887l-233 -213q-19 33 -57.5 54.5t-84.5 21.5q-114 0 -189.5 -69t-90.5 -183t41 -183t170 -69q85 0 161 76l172 -213q-77 -69 -176 -101.5t-196 -32.5q-15 0 -19 2l-80 -100q42 0 73.5 -3t66.5 -13.5t56 -28t32.5 -49.5t5.5 -76q-7 -53 -42 -94t-84 -62.5t-96.5 -32
t-90.5 -10.5q-60 0 -127.5 17.5t-120.5 44.5l65 96q90 -35 154 -35q136 0 143 66q5 33 -25 51.5t-67 18.5q-30 0 -76 -17l-57 60l149 184q-178 39 -272.5 174t-67.5 330q22 155 113.5 275t225.5 183.5t288 63.5q97 0 188 -32t148 -101z" />
    <glyph glyph-name="egrave" unicode="&#xe8;" horiz-adv-x="1175" 
d="M883 330l192 -158q-87 -93 -207 -145t-241 -52q-115 0 -211 37.5t-161 104.5t-95 166t-13 215q22 155 113.5 275t225.5 183.5t288 63.5q215 0 321 -142t72 -380l-12 -97h-713q6 -88 60 -140t143 -52q133 0 238 121zM471 610h406q12 78 -34 133.5t-128 55.5
q-96 0 -162 -56t-82 -133zM795 1450l163 -295h-270l-311 295h418z" />
    <glyph glyph-name="eacute" unicode="&#xe9;" horiz-adv-x="1175" 
d="M883 330l192 -158q-87 -93 -207 -145t-241 -52q-115 0 -211 37.5t-161 104.5t-95 166t-13 215q22 155 113.5 275t225.5 183.5t288 63.5q215 0 321 -142t72 -380l-12 -97h-713q6 -88 60 -140t143 -52q133 0 238 121zM471 610h406q12 78 -34 133.5t-128 55.5
q-96 0 -162 -56t-82 -133zM545 1155l250 295h417l-397 -295h-270z" />
    <glyph glyph-name="ecircumflex" unicode="&#xea;" horiz-adv-x="1175" 
d="M883 330l192 -158q-87 -93 -207 -145t-241 -52q-115 0 -211 37.5t-161 104.5t-95 166t-13 215q22 155 113.5 275t225.5 183.5t288 63.5q215 0 321 -142t72 -380l-12 -97h-713q6 -88 60 -140t143 -52q133 0 238 121zM471 610h406q12 78 -34 133.5t-128 55.5
q-96 0 -162 -56t-82 -133zM1157 1155h-283l-106 160l-150 -160h-276l287 295h334z" />
    <glyph glyph-name="edieresis" unicode="&#xeb;" horiz-adv-x="1175" 
d="M883 330l192 -158q-87 -93 -207 -145t-241 -52q-115 0 -211 37.5t-161 104.5t-95 166t-13 215q22 155 113.5 275t225.5 183.5t288 63.5q215 0 321 -142t72 -380l-12 -97h-713q6 -88 60 -140t143 -52q133 0 238 121zM471 610h406q12 78 -34 133.5t-128 55.5
q-96 0 -162 -56t-82 -133zM532 1143q-71 0 -112.5 52t-30.5 124q9 67 65.5 117.5t123.5 50.5q72 0 118 -48t37 -120q-11 -74 -68.5 -125t-132.5 -51zM958 1143q-71 0 -112.5 52t-30.5 124q9 67 65.5 117.5t123.5 50.5q72 0 118 -48t37 -120q-11 -74 -68.5 -125t-132.5 -51z
" />
    <glyph glyph-name="igrave" unicode="&#xec;" 
d="M113 0l139 995h307l-139 -995h-307zM473 1450l164 -295h-270l-312 295h418z" />
    <glyph glyph-name="iacute" unicode="&#xed;" 
d="M113 0l139 995h307l-139 -995h-307zM223 1155l250 295h418l-397 -295h-271z" />
    <glyph glyph-name="icircumflex" unicode="&#xee;" 
d="M113 0l139 995h307l-139 -995h-307zM836 1155h-283l-107 160l-149 -160h-277l287 295h334z" />
    <glyph glyph-name="idieresis" unicode="&#xef;" 
d="M113 0l139 995h307l-139 -995h-307zM211 1143q-71 0 -112.5 52t-30.5 124q9 67 65 117.5t123 50.5q72 0 118.5 -48t37.5 -120q-11 -74 -68.5 -125t-132.5 -51zM637 1143q-71 0 -112.5 52t-30.5 124q9 67 65 117.5t123 50.5q72 0 118.5 -48t37.5 -120q-11 -74 -68.5 -125
t-132.5 -51z" />
    <glyph glyph-name="eth" unicode="&#xf0;" horiz-adv-x="1249" 
d="M1143 1591l139 -137l-266 -104q24 -31 39 -50t41.5 -57t43.5 -67t40 -74t37 -85t28 -93t19.5 -104.5t5 -113t-9.5 -124.5q-40 -283 -207.5 -446.5t-431.5 -160.5q-115 0 -211 37.5t-161 104.5t-95 166t-13 215q16 115 74 214.5t139.5 166t177.5 104t191 37.5
q134 0 192 -53l7 4q-35 62 -92 142t-99 122l-231 -92l-127 139l233 94q-18 23 -55.5 60t-67.5 61l271 143q80 -70 141 -147zM449 498q-15 -114 40.5 -183t169.5 -69t190 69t91 183t-41 183t-170 69t-189.5 -69t-90.5 -183z" />
    <glyph glyph-name="ntilde" unicode="&#xf1;" horiz-adv-x="1175" 
d="M109 0l139 995h295l-19 -135h4q43 66 126 113t188 47q91 0 154 -24t97.5 -64t50 -103t14.5 -128.5t-13 -151.5l-78 -549h-307l67 487q5 39 7.5 60.5t3.5 58t-6.5 57.5t-21 43.5t-40.5 33t-65 10.5q-57 0 -98.5 -20.5t-65.5 -59t-36 -79t-20 -95.5l-69 -496h-307z
M512 1167h-162q36 116 115 199.5t186 83.5q74 0 172 -43q5 -2 20.5 -8.5t22 -9t19.5 -6.5t24 -5.5t23 -1.5q57 0 102 74h160q-89 -283 -307 -283q-57 0 -154 43q-80 43 -123 43q-58 0 -98 -86z" />
    <glyph glyph-name="ograve" unicode="&#xf2;" horiz-adv-x="1249" 
d="M141 498q22 155 113.5 275t225.5 183.5t288 63.5q115 0 210.5 -37.5t161 -104.5t95 -165.5t12.5 -214.5q-22 -155 -113 -275t-225.5 -184t-287.5 -64q-115 0 -211 37.5t-161 104.5t-95 166t-13 215zM449 498q-15 -114 40.5 -183t169.5 -69t190 69t91 183t-41 183t-170 69
t-189.5 -69t-90.5 -183zM831 1450l164 -295h-270l-311 295h417z" />
    <glyph glyph-name="oacute" unicode="&#xf3;" horiz-adv-x="1249" 
d="M141 498q22 155 113.5 275t225.5 183.5t288 63.5q115 0 210.5 -37.5t161 -104.5t95 -165.5t12.5 -214.5q-22 -155 -113 -275t-225.5 -184t-287.5 -64q-115 0 -211 37.5t-161 104.5t-95 166t-13 215zM449 498q-15 -114 40.5 -183t169.5 -69t190 69t91 183t-41 183t-170 69
t-189.5 -69t-90.5 -183zM582 1155l249 295h418l-397 -295h-270z" />
    <glyph glyph-name="ocircumflex" unicode="&#xf4;" horiz-adv-x="1249" 
d="M141 498q22 155 113.5 275t225.5 183.5t288 63.5q115 0 210.5 -37.5t161 -104.5t95 -165.5t12.5 -214.5q-22 -155 -113 -275t-225.5 -184t-287.5 -64q-115 0 -211 37.5t-161 104.5t-95 166t-13 215zM449 498q-15 -114 40.5 -183t169.5 -69t190 69t91 183t-41 183t-170 69
t-189.5 -69t-90.5 -183zM1194 1155h-283l-106 160l-150 -160h-276l287 295h333z" />
    <glyph glyph-name="otilde" unicode="&#xf5;" horiz-adv-x="1249" 
d="M141 498q22 155 113.5 275t225.5 183.5t288 63.5q115 0 210.5 -37.5t161 -104.5t95 -165.5t12.5 -214.5q-22 -155 -113 -275t-225.5 -184t-287.5 -64q-115 0 -211 37.5t-161 104.5t-95 166t-13 215zM449 498q-15 -114 40.5 -183t169.5 -69t190 69t91 183t-41 183t-170 69
t-189.5 -69t-90.5 -183zM549 1167h-162q36 116 115 199.5t186 83.5q74 0 172 -43q5 -2 20.5 -8.5t22 -9t19.5 -6.5t24 -5.5t23 -1.5q57 0 102 74h160q-89 -283 -307 -283q-57 0 -154 43q-80 43 -123 43q-58 0 -98 -86z" />
    <glyph glyph-name="odieresis" unicode="&#xf6;" horiz-adv-x="1249" 
d="M141 498q22 155 113.5 275t225.5 183.5t288 63.5q115 0 210.5 -37.5t161 -104.5t95 -165.5t12.5 -214.5q-22 -155 -113 -275t-225.5 -184t-287.5 -64q-115 0 -211 37.5t-161 104.5t-95 166t-13 215zM449 498q-15 -114 40.5 -183t169.5 -69t190 69t91 183t-41 183t-170 69
t-189.5 -69t-90.5 -183zM569 1143q-71 0 -112.5 52t-30.5 124q9 67 65 117.5t123 50.5q72 0 118.5 -48t37.5 -120q-11 -74 -68.5 -125t-132.5 -51zM995 1143q-71 0 -112.5 52t-30.5 124q9 67 65 117.5t123 50.5q72 0 118.5 -48t37.5 -120q-11 -74 -68.5 -125t-132.5 -51z
" />
    <glyph glyph-name="divide" unicode="&#xf7;" horiz-adv-x="1363" 
d="M190 492l35 258h1123l-35 -258h-1123zM539 233q11 72 69.5 124.5t130.5 52.5t117 -52.5t35 -124.5q-11 -72 -70 -124t-131 -52t-116.5 52t-34.5 124zM647 1008q11 72 70 124t131 52t116.5 -52t34.5 -124q-9 -72 -68.5 -124.5t-131.5 -52.5t-116.5 52.5t-35.5 124.5z" />
    <glyph glyph-name="oslash" unicode="&#xf8;" horiz-adv-x="1249" 
d="M55 12l164 144q-105 136 -78 342q22 155 113.5 275t225.5 183.5t288 63.5q191 0 324 -100l157 137l82 -92l-153 -136q96 -135 69 -331q-22 -155 -113 -275t-225.5 -184t-287.5 -64q-181 0 -312 95l-170 -150zM461 369l397 348q-51 33 -129 33q-114 0 -189.5 -69
t-90.5 -183q-9 -74 12 -129zM932 614l-389 -340q51 -28 116 -28q114 0 190 69t91 183q9 66 -8 116z" />
    <glyph glyph-name="ugrave" unicode="&#xf9;" horiz-adv-x="1175" 
d="M1206 995l-139 -995h-295l19 135h-5q-43 -66 -126 -113t-187 -47q-91 0 -154 24t-97.5 64.5t-49.5 102.5t-14 128t14 152l76 549h307l-68 -487q-5 -33 -7 -51.5t-3 -50t2 -50.5t11.5 -42.5t23 -36.5t39 -22t57.5 -9q57 0 98.5 20.5t65 59.5t35.5 79t20 95l70 495h307z
M795 1450l163 -295h-270l-311 295h418z" />
    <glyph glyph-name="uacute" unicode="&#xfa;" horiz-adv-x="1175" 
d="M1206 995l-139 -995h-295l19 135h-5q-43 -66 -126 -113t-187 -47q-91 0 -154 24t-97.5 64.5t-49.5 102.5t-14 128t14 152l76 549h307l-68 -487q-5 -33 -7 -51.5t-3 -50t2 -50.5t11.5 -42.5t23 -36.5t39 -22t57.5 -9q57 0 98.5 20.5t65 59.5t35.5 79t20 95l70 495h307z
M545 1155l250 295h417l-397 -295h-270z" />
    <glyph glyph-name="ucircumflex" unicode="&#xfb;" horiz-adv-x="1175" 
d="M1206 995l-139 -995h-295l19 135h-5q-43 -66 -126 -113t-187 -47q-91 0 -154 24t-97.5 64.5t-49.5 102.5t-14 128t14 152l76 549h307l-68 -487q-5 -33 -7 -51.5t-3 -50t2 -50.5t11.5 -42.5t23 -36.5t39 -22t57.5 -9q57 0 98.5 20.5t65 59.5t35.5 79t20 95l70 495h307z
M1157 1155h-283l-106 160l-150 -160h-276l287 295h334z" />
    <glyph glyph-name="udieresis" unicode="&#xfc;" horiz-adv-x="1175" 
d="M1206 995l-139 -995h-295l19 135h-5q-43 -66 -126 -113t-187 -47q-91 0 -154 24t-97.5 64.5t-49.5 102.5t-14 128t14 152l76 549h307l-68 -487q-5 -33 -7 -51.5t-3 -50t2 -50.5t11.5 -42.5t23 -36.5t39 -22t57.5 -9q57 0 98.5 20.5t65 59.5t35.5 79t20 95l70 495h307z
M532 1143q-71 0 -112.5 52t-30.5 124q9 67 65.5 117.5t123.5 50.5q72 0 118 -48t37 -120q-11 -74 -68.5 -125t-132.5 -51zM958 1143q-71 0 -112.5 52t-30.5 124q9 67 65.5 117.5t123.5 50.5q72 0 118 -48t37 -120q-11 -74 -68.5 -125t-132.5 -51z" />
    <glyph glyph-name="yacute" unicode="&#xfd;" horiz-adv-x="1138" 
d="M1272 995l-613 -1157q-77 -143 -119 -195q-78 -96 -204 -122q-63 -13 -146 -13q-119 0 -223 37l76 252q68 -30 139 -30q41 0 72 8t51.5 18.5t41 36t32 44.5t33.5 60l28 58l-295 1003h332l164 -657h4l311 657h316zM526 1155l250 295h418l-397 -295h-271z" />
    <glyph glyph-name="thorn" unicode="&#xfe;" horiz-adv-x="1290" 
d="M72 -467l282 2015h308l-93 -659h4q42 59 127 95t172 36q220 0 334.5 -143.5t83.5 -370.5q-20 -140 -90.5 -260t-186.5 -195.5t-253 -75.5q-219 0 -297 131h-4l-80 -573h-307zM489 498q-15 -114 41 -183t170 -69t190 69t91 183t-41 183t-170 69t-190 -69t-91 -183z" />
    <glyph glyph-name="ydieresis" unicode="&#xff;" horiz-adv-x="1138" 
d="M1272 995l-613 -1157q-77 -143 -119 -195q-78 -96 -204 -122q-63 -13 -146 -13q-119 0 -223 37l76 252q68 -30 139 -30q41 0 72 8t51.5 18.5t41 36t32 44.5t33.5 60l28 58l-295 1003h332l164 -657h4l311 657h316zM514 1143q-71 0 -112.5 52t-30.5 124q9 67 65 117.5
t123 50.5q72 0 118.5 -48t37.5 -120q-11 -74 -68.5 -125t-132.5 -51zM940 1143q-71 0 -112.5 52t-30.5 124q9 67 65 117.5t123 50.5q72 0 118.5 -48t37.5 -120q-11 -74 -68.5 -125t-132.5 -51z" />
    <glyph glyph-name="dotlessi" unicode="&#x131;" 
d="M113 0l139 995h307l-139 -995h-307z" />
    <glyph glyph-name="Lslash" unicode="&#x141;" horiz-adv-x="1099" 
d="M160 0l45 328l-137 -107l38 271l138 106l121 852h319l-82 -576l483 379l-36 -266l-484 -377l-45 -315h592l-41 -295h-911z" />
    <glyph glyph-name="lslash" unicode="&#x142;" 
d="M113 0l71 508l-141 -125l37 264l141 125l109 776h307l-66 -469l142 125l-37 -264l-141 -125l-115 -815h-307z" />
    <glyph glyph-name="OE" unicode="&#x152;" horiz-adv-x="2084" 
d="M1524 1155l-37 -270h541l-43 -295h-541l-41 -295h614l-41 -295h-1087q-120 0 -231 26t-210 83.5t-167 140.5t-99 205.5t-10 269.5q24 172 105.5 311t203.5 228.5t274 137.5t322 48h1080l-43 -295h-590zM1083 295l121 860h-104q-160 0 -286 -47t-208.5 -145t-101.5 -238
q-30 -209 100.5 -319.5t374.5 -110.5h104z" />
    <glyph glyph-name="oe" unicode="&#x153;" horiz-adv-x="1933" 
d="M1640 330l193 -158q-87 -93 -207.5 -145t-241.5 -52q-130 0 -219.5 33.5t-148.5 108.5q-157 -142 -393 -142q-115 0 -211.5 37.5t-162 104.5t-95.5 166t-13 215q22 155 113.5 275t226 183.5t289.5 63.5q226 0 352 -150q163 150 410 150q215 0 321 -142t72 -380l-12 -97
h-713q6 -88 60 -140t143 -52q132 0 237 121zM731 750q-116 0 -191.5 -69t-90.5 -183t41.5 -183t171.5 -69q114 0 189.5 69t90.5 183t-41 183t-170 69zM1229 610h405q12 78 -33.5 133.5t-127.5 55.5q-96 0 -162 -56t-82 -133z" />
    <glyph glyph-name="Scaron" unicode="&#x160;" horiz-adv-x="1175" 
d="M1272 1335l-254 -239q-29 46 -91 71t-126 25q-81 0 -153.5 -38t-82.5 -112q-6 -42 12 -73t54 -51t83.5 -36t100.5 -32.5t106 -36t98.5 -50.5t78.5 -72t47 -105.5t2 -145.5q-16 -118 -74.5 -210.5t-144.5 -150t-190 -87t-218 -29.5q-290 0 -461 182l263 250
q39 -64 109.5 -100.5t150.5 -36.5q86 0 158.5 40t82.5 112q7 53 -25 91t-88.5 61.5t-126 45t-137.5 51.5t-122 71.5t-81.5 114.5t-13.5 171q13 90 53.5 167t101 132.5t136 94.5t159 58t169.5 19q272 0 424 -152zM440 1905h283l106 -160l150 160h276l-286 -295h-334z" />
    <glyph glyph-name="scaron" unicode="&#x161;" horiz-adv-x="948" 
d="M985 889l-215 -187q-57 84 -166 84q-45 0 -82 -20t-43 -61q-4 -29 22 -48t70.5 -30t98 -22t106 -31.5t94 -50.5t62.5 -86.5t10 -133.5q-13 -91 -63.5 -157.5t-124.5 -102t-153 -52t-165 -16.5q-114 0 -212.5 32.5t-157.5 103.5l215 206q73 -108 200 -108q59 0 102.5 17.5
t47.5 54.5q4 28 -15.5 47.5t-54.5 29.5t-80 21t-92 21t-90.5 32t-75.5 51.5t-47 81t-6 119.5q12 84 57 150t110 105.5t141 60t157 20.5q109 0 202 -31t148 -100zM264 1450h283l106 -160l150 160h276l-286 -295h-334z" />
    <glyph glyph-name="Ydieresis" unicode="&#x178;" horiz-adv-x="1327" 
d="M504 0l86 618l-426 832h397l230 -543l403 543h379l-664 -832l-86 -618h-319zM674 1597q-71 0 -114 53t-32 124q9 67 65.5 117.5t123.5 50.5q72 0 118 -48t37 -120q-11 -74 -67.5 -125.5t-130.5 -51.5zM1100 1597q-71 0 -114 53t-32 124q9 67 65.5 117.5t123.5 50.5
q72 0 118 -48t37 -120q-11 -74 -67.5 -125.5t-130.5 -51.5z" />
    <glyph glyph-name="Zcaron" unicode="&#x17d;" horiz-adv-x="1290" 
d="M72 0l41 295l858 872h-709l41 283h1096l-41 -283l-844 -872h746l-41 -295h-1147zM498 1905h282l107 -160l149 160h277l-287 -295h-334z" />
    <glyph glyph-name="zcaron" unicode="&#x17e;" horiz-adv-x="1024" 
d="M70 0l43 307l577 443h-504l35 245h860l-41 -295l-604 -454h553l-35 -246h-884zM301 1450h283l106 -160l150 160h276l-287 -295h-333z" />
    <glyph glyph-name="florin" unicode="&#x192;" horiz-adv-x="1212" 
d="M1141 889l-29 -209h-299l-203 -598q-62 -179 -172 -273t-293 -94q-115 0 -219 49l142 244q34 -22 90 -22q64 0 104.5 44t75.5 150l174 500h-233l28 209h275l63 186q77 228 175 314t286 86q134 0 258 -62l-141 -231q-49 22 -103 22q-72 0 -113 -39t-73 -131l-51 -145h258z
" />
    <glyph glyph-name="circumflex" unicode="&#x2c6;" 
d="M836 1155h-283l-107 160l-149 -160h-277l287 295h334z" />
    <glyph glyph-name="caron" unicode="&#x2c7;" 
d="M55 1450h283l106 -160l150 160h276l-286 -295h-334z" />
    <glyph glyph-name="uni02C9" unicode="&#x2c9;" 
d="M813 1407l-29 -197h-696l29 197h696z" />
    <glyph glyph-name="breve" unicode="&#x2d8;" 
d="M94 1450h164q5 -53 68 -80q50 -18 131 -18q93 0 145.5 18t83.5 80h162q-38 -149 -151 -222t-269 -73q-76 0 -137.5 16.5t-109 50t-71 92t-16.5 136.5z" />
    <glyph glyph-name="dotaccent" unicode="&#x2d9;" 
d="M424 1143q-71 0 -112.5 52t-30.5 124q9 67 65 117.5t123 50.5q72 0 118.5 -48t37.5 -120q-11 -74 -68.5 -125t-132.5 -51z" />
    <glyph glyph-name="ring" unicode="&#x2da;" 
d="M424 1116q-94 0 -151.5 66.5t-45.5 160.5q14 94 90 161t170 67t151.5 -67t43.5 -161q-12 -94 -88 -160.5t-170 -66.5zM350 1343q-6 -43 20.5 -73.5t69.5 -30.5t78 30.5t41 73.5t-20.5 74t-69.5 31t-78 -31t-41 -74z" />
    <glyph glyph-name="ogonek" unicode="&#x2db;" 
d="M322 -297l40 -109q-125 -86 -235 -86q-89 0 -144.5 52t-43.5 139q11 81 91 171.5t171 154.5h139q-68 -51 -134.5 -131.5t-74.5 -143.5q-5 -35 16 -64.5t56 -29.5q57 0 119 47z" />
    <glyph glyph-name="tilde" unicode="&#x2dc;" 
d="M190 1167h-161q36 116 115 199.5t186 83.5q74 0 172 -43q6 -2 20.5 -8t21.5 -9t19.5 -7t23.5 -5.5t23 -1.5q58 0 103 74h159q-89 -283 -307 -283q-56 0 -153 43q-80 43 -123 43q-59 0 -99 -86z" />
    <glyph glyph-name="hungarumlaut" unicode="&#x2dd;" 
d="M-47 1155l250 295h418l-398 -295h-270zM494 1155l249 295h418l-397 -295h-270z" />
    <glyph glyph-name="uni03A9" unicode="&#x3a9;" horiz-adv-x="1538" 
d="M403 223l3 6q-98 100 -153 246t-30 328q19 134 84.5 255t164 211.5t231.5 143.5t278 53q123 0 224 -38t168 -102t110 -148t56.5 -176.5t0.5 -186.5q-26 -186 -123.5 -337t-226.5 -249l-2 -6h297l-31 -223h-580l23 166q127 73 222 219t126 371q18 130 -8 238t-101 176.5
t-190 68.5q-167 0 -290 -139t-154 -355q-29 -210 24.5 -362.5t157.5 -216.5l-22 -166h-582l31 223h292z" />
    <glyph glyph-name="uni03BC" unicode="&#x3bc;" horiz-adv-x="1175" 
d="M1206 995l-139 -995h-295l19 135h-5q-43 -66 -126 -113t-187 -47q-31 0 -59 7l-64 -449h-307l205 1462h307l-68 -487q-5 -33 -7 -51.5t-3 -50t2 -50.5t11.5 -42.5t23 -36.5t39 -22t57.5 -9q57 0 98.5 20.5t65 59.5t35.5 79t20 95l70 495h307z" />
    <glyph glyph-name="pi" unicode="&#x3c0;" horiz-adv-x="1304" 
d="M1372 852h-151l-74 -537q-30 -204 -17 -315h-274q-27 58 6 301l76 551h-291q-35 -191 -109 -449.5t-145 -402.5h-274q76 177 150 429.5t100 422.5q-139 0 -213 -21l-4 183q97 71 364 71h909z" />
    <glyph glyph-name="endash" unicode="&#x2013;" horiz-adv-x="1024" 
d="M55 387l33 246h1024l-33 -246h-1024z" />
    <glyph glyph-name="emdash" unicode="&#x2014;" horiz-adv-x="2048" 
d="M55 387l33 246h2048l-33 -246h-2048z" />
    <glyph glyph-name="quoteleft" unicode="&#x2018;" horiz-adv-x="606" 
d="M203 872l266 578h262l-233 -578h-295z" />
    <glyph glyph-name="quoteright" unicode="&#x2019;" horiz-adv-x="606" 
d="M731 1450l-266 -578h-262l233 578h295z" />
    <glyph glyph-name="quotesinglbase" unicode="&#x201a;" horiz-adv-x="606" 
d="M571 319l-266 -577h-262l233 577h295z" />
    <glyph glyph-name="quotedblleft" unicode="&#x201c;" horiz-adv-x="1064" 
d="M213 872l266 578h262l-233 -578h-295zM651 872l267 578h262l-234 -578h-295z" />
    <glyph glyph-name="quotedblright" unicode="&#x201d;" horiz-adv-x="1064" 
d="M1180 1450l-267 -578h-262l234 578h295zM741 1450l-266 -578h-262l233 578h295z" />
    <glyph glyph-name="quotedblbase" unicode="&#x201e;" horiz-adv-x="1064" 
d="M1020 319l-266 -577h-262l233 577h295zM582 319l-267 -577h-262l234 577h295z" />
    <glyph glyph-name="dagger" unicode="&#x2020;" horiz-adv-x="1212" 
d="M420 -272l145 1034h-389l37 258h389l62 430h282l-61 -430h401l-37 -258h-401l-146 -1034h-282z" />
    <glyph glyph-name="daggerdbl" unicode="&#x2021;" horiz-adv-x="1212" 
d="M426 -272l53 368h-395l33 246h395l70 494h-396l35 245h395l54 369h282l-53 -369h395l-34 -245h-396l-69 -494h395l-33 -246h-395l-53 -368h-283z" />
    <glyph glyph-name="bullet" unicode="&#x2022;" horiz-adv-x="1024" 
d="M252 725q22 151 142.5 256.5t271.5 105.5t242 -105.5t69 -256.5t-142.5 -257t-271.5 -106t-242 106t-69 257z" />
    <glyph glyph-name="ellipsis" unicode="&#x2026;" horiz-adv-x="2048" 
d="M178 176q10 78 73.5 133.5t141.5 55.5t125.5 -55.5t36.5 -133.5q-10 -78 -73.5 -133t-141.5 -55t-125.5 55t-36.5 133zM860 176q10 78 73.5 133.5t141.5 55.5t125.5 -55.5t36.5 -133.5q-10 -78 -73.5 -133t-141.5 -55t-125.5 55t-36.5 133zM1542 176q10 78 73.5 133.5
t141.5 55.5t125.5 -55.5t36.5 -133.5q-10 -78 -73.5 -133t-141.5 -55t-125.5 55t-36.5 133z" />
    <glyph glyph-name="perthousand" unicode="&#x2030;" horiz-adv-x="2390" 
d="M856 338q22 150 142 255t270 105q149 0 240 -105.5t69 -254.5q-20 -149 -141.5 -256t-270.5 -107q-150 0 -239.5 106.5t-69.5 256.5zM1053 338q-9 -68 32.5 -117t108.5 -49t122 49t64 117t-32.5 116t-108.5 48q-68 0 -122.5 -48.5t-63.5 -115.5zM1649 338
q22 149 142 254.5t269 105.5q150 0 242 -105.5t70 -254.5q-20 -149 -142.5 -256t-271.5 -107t-239 106.5t-70 256.5zM1845 338q-9 -68 33 -117t109 -49t123 49t65 117q9 67 -33 115.5t-110 48.5t-123 -48.5t-64 -115.5zM221 1114q22 150 142 255.5t270 105.5q149 0 241 -106
t70 -255q-20 -149 -141.5 -255.5t-270.5 -106.5q-150 0 -240.5 106t-70.5 256zM418 1114q-9 -68 32.5 -117t108.5 -49q68 0 124 49.5t65 116.5q10 67 -32 115.5t-110 48.5q-67 0 -122 -48t-66 -116zM305 23l1038 1493l158 -97l-1052 -1485z" />
    <glyph glyph-name="guilsinglleft" unicode="&#x2039;" horiz-adv-x="606" 
d="M670 864l-287 -354l188 -354l-204 -125l-258 479l393 479z" />
    <glyph glyph-name="guilsinglright" unicode="&#x203a;" horiz-adv-x="606" 
d="M80 156l287 354l-189 354l205 125l258 -479l-393 -479z" />
    <glyph glyph-name="fraction" unicode="&#x2044;" horiz-adv-x="342" 
d="M-326 23l1039 1493l157 -97l-1052 -1485z" />
    <glyph glyph-name="Euro" unicode="&#x20ac;" horiz-adv-x="1212" 
d="M1206 154l-139 206q-111 -118 -262 -118q-199 0 -236 213h328l86 184h-418q0 13 4 41l6 43q1 11 17 92h463l88 189h-481q110 196 331 196q69 0 128.5 -15t88.5 -36l131 266q-37 24 -135.5 42t-173.5 18q-246 0 -423 -120t-271 -351h-107l-90 -189h140q-1 -7 -9 -43
t-10 -57l-6 -39q0 -6 -1 -18.5t-1 -18.5h-86l-84 -184h166q15 -235 137.5 -357.5t349.5 -122.5q135 0 261.5 49t207.5 130z" />
    <glyph glyph-name="afii61289" unicode="&#x2113;" horiz-adv-x="1118" 
d="M1018 397l98 -118q-197 -297 -498 -297q-92 0 -159.5 26t-106.5 72.5t-57.5 105t-18.5 129.5v23q-3 -2 -48.5 -34.5t-69.5 -47.5l-52 145q23 17 65 46.5t73.5 52.5t58.5 45l72 508q38 268 165 402t300 134q152 0 216.5 -104t41.5 -266q-25 -177 -158.5 -350.5
t-372.5 -368.5l-8 -80q-12 -101 32.5 -157t123.5 -56q81 0 160.5 54.5t142.5 135.5zM647 1069l-43 -317q131 126 214 248.5t97 224.5q23 170 -90 170q-54 0 -103.5 -76t-74.5 -250z" />
    <glyph glyph-name="trademark" unicode="&#x2122;" horiz-adv-x="2048" 
d="M412 606l90 647h-244l29 197h708l-28 -197h-244l-90 -647h-221zM1057 606l119 844h297l122 -549l279 549h297l-119 -844h-221l76 549h-4l-277 -549h-143l-125 549h-4l-76 -549h-221z" />
    <glyph glyph-name="Omega" unicode="&#x2126;" horiz-adv-x="1538" 
d="M403 223l3 6q-98 100 -153 246t-30 328q19 134 84.5 255t164 211.5t231.5 143.5t278 53q123 0 224 -38t168 -102t110 -148t56.5 -176.5t0.5 -186.5q-26 -186 -123.5 -337t-226.5 -249l-2 -6h297l-31 -223h-580l23 166q127 73 222 219t126 371q18 130 -8 238t-101 176.5
t-190 68.5q-167 0 -290 -139t-154 -355q-29 -210 24.5 -362.5t157.5 -216.5l-22 -166h-582l31 223h292z" />
    <glyph glyph-name="estimated" unicode="&#x212e;" horiz-adv-x="2015" 
d="M1944 705h-1350q-10 0 -10 -11v-407q0 -26 18 -47q101 -104 232 -163t278 -59q157 0 296.5 66t240.5 182h118q-112 -133 -285.5 -211t-371.5 -78q-169 0 -323 59t-265 159t-177 239t-66 291q0 153 66 291.5t177 239t265 160t323 59.5q170 0 324.5 -59.5t266 -160
t177.5 -239t66 -291.5v-20zM1636 758v409q0 29 -18 50q-101 100 -231.5 156.5t-274.5 56.5q-145 0 -276 -58.5t-232 -161.5q-20 -20 -20 -51v-401q0 -4 3 -9.5t7 -5.5h1034q8 0 8 15z" />
    <glyph glyph-name="partialdiff" unicode="&#x2202;" horiz-adv-x="1241" 
d="M403 1307l-51 202q181 123 418 123q123 0 223.5 -52t170 -149t96 -249.5t0.5 -341.5q-36 -254 -136 -447t-254.5 -301t-341.5 -108q-75 0 -138 21.5t-105.5 58t-75.5 85.5t-47.5 104t-20.5 112.5t4 111.5q33 242 187.5 391.5t353.5 149.5q63 0 117 -18.5t89 -47.5
t56.5 -54.5t32.5 -49.5h2q7 29 12 67q19 130 -9.5 241t-103.5 180t-182 69q-156 0 -297 -98zM588 213h2q57 0 112 37t97.5 98t75 131.5t51.5 143.5q-6 36 -29 74t-72 70t-110 32q-106 0 -190 -98t-103 -232q-15 -108 31 -182t135 -74z" />
    <glyph glyph-name="Delta" unicode="&#x2206;" horiz-adv-x="1419" 
d="M55 0l23 160l676 1317h338l292 -1315l-22 -162h-1307zM379 223h706l-143 600q-7 42 -34.5 179t-33.5 186h-6q-13 -32 -71.5 -153.5t-83.5 -180.5z" />
    <glyph glyph-name="product" unicode="&#x220f;" horiz-adv-x="1757" 
d="M1706 1194h-221v-1393h-277v1393h-456v-1393h-279v1393h-219v250h1452v-250z" />
    <glyph glyph-name="summation" unicode="&#x2211;" horiz-adv-x="1404" 
d="M1370 -199h-1118v174l514 648l-494 628v193h1061v-236h-682v-8l432 -534l-479 -605v-6h766v-254z" />
    <glyph glyph-name="minus" unicode="&#x2212;" horiz-adv-x="1363" 
d="M190 492l35 258h1123l-35 -258h-1123z" />
    <glyph glyph-name="uni2215" unicode="&#x2215;" horiz-adv-x="342" 
d="M-326 23l1039 1493l157 -97l-1052 -1485z" />
    <glyph glyph-name="uni2219" unicode="&#x2219;" horiz-adv-x="606" 
d="M197 580q10 78 73.5 133t141.5 55t125 -55t36 -133q-10 -78 -73.5 -133.5t-141.5 -55.5t-125 55.5t-36 133.5z" />
    <glyph glyph-name="radical" unicode="&#x221a;" horiz-adv-x="1482" 
d="M1507 1733l-485 -2024h-223l-322 901l-158 -63l-45 151l369 152l223 -660q34 -134 43 -178l4 -2q18 104 35 193l365 1530h194z" />
    <glyph glyph-name="infinity" unicode="&#x221e;" horiz-adv-x="1777" 
d="M1677 598v-2q0 -84 -29 -154.5t-77 -117t-109 -72t-127 -25.5q-96 0 -187 54t-190 186q-95 -118 -183.5 -179t-205.5 -61q-136 0 -236 101.5t-100 257.5q0 158 101.5 260t253.5 102q111 0 201 -59.5t178 -173.5q82 94 118 125q122 110 263 108q142 0 235.5 -97t93.5 -253
zM588 379h2q42 0 81 16t78.5 50.5t63.5 60t64 72.5q-32 43 -43.5 58.5t-40 50t-47 48.5t-46.5 33t-57.5 26t-62.5 7q-87 0 -139 -61t-52 -156q0 -86 57 -145.5t142 -59.5zM1333 801h-2q-30 0 -62 -11.5t-53 -23.5t-53 -42t-43 -41.5t-43 -49.5t-35 -41q98 -122 160.5 -167.5
t138.5 -45.5q82 0 131.5 64.5t49.5 140.5q0 96 -52.5 156.5t-136.5 60.5z" />
    <glyph glyph-name="integral" unicode="&#x222b;" horiz-adv-x="1044" 
d="M1006 1763l-27 -188q-41 18 -78 18q-69 0 -108 -53q-56 -74 -56 -344q0 -164 15.5 -480.5t15.5 -508.5q0 -274 -76 -412q-42 -80 -116.5 -117.5t-161.5 -37.5q-98 0 -168 34l35 195q57 -23 94 -23q59 0 94 41q57 79 57 320q0 193 -16 517.5t-16 498.5q0 181 30 289.5
t99 179.5q44 48 110.5 72t140.5 24q70 0 132 -25z" />
    <glyph glyph-name="approxequal" unicode="&#x2248;" horiz-adv-x="1308" 
d="M1130 946l97 -94q-54 -100 -129 -157.5t-162 -57.5q-62 0 -111.5 18.5t-128.5 65.5q-41 25 -61.5 36t-55 22.5t-67.5 11.5q-34 0 -62.5 -11.5t-54.5 -37.5t-42 -46t-42 -57l-100 92q49 95 133 155t180 60q19 0 37.5 -2.5t32.5 -5t32.5 -9t27.5 -9.5t28 -12.5t23.5 -12
t24 -13.5t20.5 -12q90 -54 123 -65q30 -10 63 -10q57 0 101 37t93 114zM1130 549l97 -92q-55 -100 -130 -158.5t-163 -58.5q-59 0 -109 19t-129 65q-41 26 -62 37.5t-54.5 22.5t-65.5 11q-45 0 -85 -24.5t-62 -51.5t-56 -77l-100 94q49 94 133.5 154.5t179.5 60.5
q19 0 37.5 -2.5t32.5 -5t32.5 -9t27.5 -9.5t28 -12.5t23.5 -12t24 -13.5t20.5 -12q10 -6 44.5 -26.5t48 -27t40 -14.5t51.5 -8q59 0 102 36t94 114z" />
    <glyph glyph-name="notequal" unicode="&#x2260;" horiz-adv-x="1333" 
d="M1026 1071l-82 -184h289v-160h-350l-125 -283h475v-157h-539l-106 -242l-125 53l84 189h-287v157h350l123 283h-473v160h535l104 235z" />
    <glyph glyph-name="lessequal" unicode="&#x2264;" horiz-adv-x="1359" 
d="M1255 209l-958 467v172l958 467v-185l-796 -364v-4l796 -369v-184zM1262 -31h-973v162h973v-162z" />
    <glyph glyph-name="greaterequal" unicode="&#x2265;" horiz-adv-x="1361" 
d="M301 1315l959 -467v-172l-959 -467v184l797 367v6l-797 364v185zM1257 -31h-966v162h966v-162z" />
    <glyph glyph-name="lozenge" unicode="&#x25ca;" horiz-adv-x="1480" 
d="M1378 721l-428 -825h-221l-416 825l426 825h222zM1133 715l-244 491q-34 90 -39 119h-8q-6 -26 -39 -119l-246 -479l248 -500q27 -74 35 -112h10q15 71 37 108z" />
    </font>
</defs>
</svg>
