<?xml version="1.0" standalone="no"?>
<!DOCTYPE svg PUBLIC "-//W3C//DTD SVG 1.1//EN" "http://www.w3.org/Graphics/SVG/1.1/DTD/svg11.dtd" >
<svg xmlns="http://www.w3.org/2000/svg" xmlns:xlink="http://www.w3.org/1999/xlink" version="1.1">
<metadata>
Created by FontForge 20201107 at Wed Jul 17 16:26:11 2024
 By 
Copyright (c) 1989, 1995, 2002 Adobe Systems Incorporated.  All Rights Reserved. (c) 1981, 1995, 2002 Heidelberger Druckmaschinen AG. All rights reserved.
</metadata>
<defs>
<font id="AvenirLTStd-Oblique" horiz-adv-x="1138" >
  <font-face 
    font-family="Avenir LT Std 55 Roman"
    font-weight="400"
    font-style="oblique"
    font-stretch="normal"
    units-per-em="2048"
    panose-1="2 11 5 3 2 2 3 2 2 4"
    ascent="1638"
    descent="-410"
    x-height="958"
    cap-height="1450"
    bbox="-340 -567 2165 1901"
    underline-thickness="102"
    underline-position="-204"
    slope="-8"
    unicode-range="U+0020-FB02"
  />
<missing-glyph horiz-adv-x="1224" 
d="M201 0v1434h1024v-1434h-1024zM713 809l348 522h-696zM774 717l348 -522v1044zM365 102h696l-348 523zM303 1239v-1044l348 522z" />
    <glyph glyph-name="fi" unicode="fi" horiz-adv-x="1099" 
d="M762 958l-19 -135h-233l-117 -823h-160l117 823h-209l19 135h209l30 216q13 91 40 161t73 125t117.5 84t165.5 29q73 0 118 -25l-43 -143q-55 20 -104 20q-35 0 -63 -8t-47.5 -19t-35 -34t-25 -42.5t-18.5 -54t-13 -59.5t-11 -69l-25 -181h234zM774 0l135 958h160
l-135 -958h-160zM924 1333q8 48 47 82.5t88 34.5t77.5 -34.5t20.5 -82.5q-6 -51 -44 -83.5t-89 -32.5t-78.5 32.5t-21.5 83.5z" />
    <glyph glyph-name="fl" unicode="fl" horiz-adv-x="1099" 
d="M233 0l117 823h-209l19 135h209l30 216q13 91 40 161t73 125t117.5 84t165.5 29q73 0 118 -25l-43 -143q-55 20 -104 20q-35 0 -63 -8t-47.5 -19t-35 -34t-25 -42.5t-18.5 -54t-13 -59.5t-11 -69l-25 -181h234l-19 -135h-233l-117 -823h-160zM774 0l217 1548h160
l-217 -1548h-160z" />
    <glyph glyph-name=".notdef" horiz-adv-x="1224" 
d="M201 0v1434h1024v-1434h-1024zM713 809l348 522h-696zM774 717l348 -522v1044zM365 102h696l-348 523zM303 1239v-1044l348 522z" />
    <glyph glyph-name=".null" horiz-adv-x="0" 
 />
    <glyph glyph-name="nonmarkingreturn" horiz-adv-x="682" 
 />
    <glyph glyph-name="space" unicode=" " horiz-adv-x="569" 
 />
    <glyph glyph-name="exclam" unicode="!" horiz-adv-x="569" 
d="M575 1450l-147 -1044h-172l147 1044h172zM317 233q51 0 82 -35.5t25 -86.5q-7 -50 -50 -86.5t-91 -36.5t-80 36.5t-25 86.5q6 51 47 86.5t92 35.5z" />
    <glyph glyph-name="quotedbl" unicode="&#x22;" horiz-adv-x="1062" 
d="M442 958l70 492h147l-69 -492h-148zM743 958l70 492h148l-70 -492h-148z" />
    <glyph glyph-name="numbersign" unicode="#" 
d="M201 0l123 436h-201l18 135h221l87 312h-201l18 135h221l123 432h138l-123 -432h258l123 432h137l-123 -432h201l-19 -135h-219l-88 -312h201l-19 -135h-221l-123 -436h-137l123 436h-258l-123 -436h-137zM758 571l88 312h-258l-88 -312h258z" />
    <glyph glyph-name="dollar" unicode="$" 
d="M500 -170l20 145q-135 0 -243 46.5t-168 144.5l161 125q35 -68 110.5 -110.5t162.5 -45.5l73 520q-66 18 -119.5 41t-101.5 58.5t-78.5 79t-43.5 104.5t-3 133q15 111 84.5 201.5t168 142t208.5 60.5l19 135h98l-19 -135q114 0 214.5 -42.5t160.5 -123.5l-153 -123
q-37 61 -100.5 95t-143.5 34l-72 -510q78 -26 125.5 -45t106 -54.5t88.5 -75t47 -101.5t6 -140q-17 -118 -89.5 -211.5t-177 -144.5t-223.5 -58l-20 -145h-98zM641 831l68 484q-103 -19 -173 -85t-83 -161q-7 -51 4 -89t41 -65.5t60.5 -44.5t82.5 -39zM711 629l-70 -494
q108 12 188 80.5t93 165.5q7 54 -7 96t-47.5 70.5t-69.5 46.5t-87 35z" />
    <glyph glyph-name="percent" unicode="%" horiz-adv-x="1705" 
d="M236 1116q20 151 138 255t269 104t240 -104t69 -255q-22 -151 -140 -254.5t-269 -103.5t-240 103.5t-67 254.5zM383 1116q-12 -86 41.5 -148.5t138.5 -62.5t157.5 62.5t84.5 148.5q10 86 -43.5 148.5t-138.5 62.5t-157.5 -62.5t-82.5 -148.5zM958 334q22 151 140.5 254.5
t269.5 103.5t240 -103.5t67 -254.5t-140 -255t-269 -104t-240.5 104t-67.5 255zM1106 334q-12 -86 41.5 -148.5t138.5 -62.5t157.5 62.5t84.5 148.5t-42.5 148.5t-139.5 62.5t-156.5 -62.5t-83.5 -148.5zM348 0l1122 1516l105 -66l-1122 -1516z" />
    <glyph glyph-name="ampersand" unicode="&#x26;" horiz-adv-x="1478" 
d="M1214 0l-167 209q-109 -117 -219 -175.5t-248 -58.5q-125 0 -221.5 48.5t-147.5 144t-33 221.5q11 74 45 140t87 117.5t114.5 91.5t134.5 71q-72 84 -106.5 162.5t-20.5 173.5q14 104 77 180.5t152 114t191 37.5q156 0 247.5 -84.5t69.5 -237.5q-9 -65 -43 -122.5
t-88.5 -103t-107 -78t-119.5 -65.5l262 -325l240 325h194l-342 -446l285 -340h-236zM676 944l43 -53q124 63 171 98q95 73 109 170q10 77 -36.5 123.5t-124.5 46.5q-89 0 -156.5 -53.5t-79.5 -140.5q-11 -90 74 -191zM958 324l-309 381q-47 -24 -80 -43.5t-74.5 -50t-68 -60
t-48 -70.5t-28.5 -86q-17 -115 55.5 -193.5t188.5 -78.5q102 0 184 51.5t180 149.5z" />
    <glyph glyph-name="quotesingle" unicode="'" horiz-adv-x="569" 
d="M346 958l70 492h147l-69 -492h-148z" />
    <glyph glyph-name="parenleft" unicode="(" horiz-adv-x="569" 
d="M487 -242l-120 -77q-117 199 -161 435t-11 474q36 249 146.5 482t281.5 427l98 -82q-312 -362 -379 -827q-33 -239 2.5 -427.5t142.5 -404.5z" />
    <glyph glyph-name="parenright" unicode=")" horiz-adv-x="569" 
d="M248 1421l121 78q116 -200 160 -436.5t10 -472.5q-35 -249 -145 -482t-281 -427l-99 81q154 179 250 390.5t127 437.5q34 239 -1 427t-142 404z" />
    <glyph glyph-name="asterisk" unicode="*" horiz-adv-x="909" 
d="M721 1450l-43 -305l303 98l23 -119l-304 -98l150 -244l-113 -77l-147 251l-215 -251l-90 77l211 244l-275 98l55 119l279 -98l43 305h123z" />
    <glyph glyph-name="plus" unicode="+" horiz-adv-x="1363" 
d="M225 553l19 135h467l65 467h135l-65 -467h467l-19 -135h-467l-65 -467h-135l65 467h-467z" />
    <glyph glyph-name="comma" unicode="," horiz-adv-x="569" 
d="M461 209l-236 -492h-157l206 492h187z" />
    <glyph glyph-name="hyphen" unicode="-" horiz-adv-x="681" 
d="M150 418l20 147h502l-21 -147h-501z" />
    <glyph glyph-name="period" unicode="." horiz-adv-x="569" 
d="M317 233q51 0 82 -35.5t25 -86.5q-7 -50 -50 -86.5t-91 -36.5t-80 36.5t-25 86.5q6 51 47 86.5t92 35.5z" />
    <glyph glyph-name="slash" unicode="/" horiz-adv-x="757" 
d="M961 1487l-838 -1575l-123 51l838 1573z" />
    <glyph glyph-name="zero" unicode="0" 
d="M180 725q15 107 41 205.5t74 200.5t111.5 176t159 121t210.5 47q83 0 149 -24.5t110 -66t74.5 -101t46 -124.5t20.5 -141.5t1 -147t-14 -145.5q-15 -108 -41.5 -206t-75 -200t-112 -176t-159 -121t-210.5 -47q-83 0 -149 24.5t-110 66t-74.5 101t-45.5 124.5t-20 141
t-1 147t15 146zM352 725q-8 -52 -12.5 -101t-5 -111t6 -114.5t23.5 -105t44.5 -89t73 -59t104.5 -22.5t111 22.5t89.5 59t69.5 89t53 104.5t38.5 115t26.5 111t17 101q7 53 11.5 101t5 111t-6 115t-23.5 104.5t-44.5 89t-73 59t-104.5 22.5q-69 0 -127 -29t-99 -80.5
t-72.5 -110.5t-52 -132t-33 -130.5t-20.5 -119.5z" />
    <glyph glyph-name="one" unicode="1" 
d="M942 1450l-205 -1450h-172l172 1229h-4l-291 -219l-84 125l435 315h149z" />
    <glyph glyph-name="two" unicode="2" 
d="M102 0l27 197l623 532q67 57 104.5 92.5t73 79t52.5 86t24 94.5q17 111 -50.5 178.5t-179.5 67.5q-107 0 -189 -62.5t-118 -168.5l-184 16q54 174 190.5 268.5t315.5 94.5q91 0 167 -25.5t130 -74t78.5 -124.5t11.5 -170q-8 -56 -24.5 -106t-46.5 -96.5t-55 -80
t-71.5 -77.5t-73 -67.5t-82.5 -69.5l-506 -420v-4h740l-23 -160h-934z" />
    <glyph glyph-name="three" unicode="3" 
d="M514 688l21 148h53q330 0 366 251q15 109 -45 174.5t-170 65.5q-187 0 -288 -162l-158 64q68 119 190 182.5t265 63.5q183 0 293 -100t85 -279q-15 -114 -97 -206t-198 -126v-4q133 -23 200 -124.5t46 -240.5q-14 -101 -64 -182t-123.5 -132t-163 -78.5t-187.5 -27.5
q-171 0 -282 75t-142 231l182 57q22 -117 82 -166t180 -49q125 0 221 80.5t115 204.5q9 62 -5.5 111t-45 80t-76.5 51.5t-95.5 29t-105.5 8.5h-53z" />
    <glyph glyph-name="four" unicode="4" 
d="M1063 1450l-135 -958h209l-23 -160h-209l-47 -332h-172l47 332h-614l26 190l707 928h211zM756 492l106 757h-4l-569 -757h467z" />
    <glyph glyph-name="five" unicode="5" 
d="M1176 1450l-23 -160h-592l-61 -391q76 35 190 35q137 0 234 -62.5t138.5 -171t22.5 -243.5q-29 -214 -189.5 -348t-375.5 -134q-300 0 -391 265l182 65q25 -84 89.5 -133t154.5 -49q133 0 235.5 93t122.5 241q23 155 -65 242t-246 87q-145 0 -307 -90l121 754h760z" />
    <glyph glyph-name="six" unicode="6" 
d="M1012 1450l-475 -604l4 -4q79 43 200 43q190 0 296.5 -127t78.5 -328q-20 -138 -99.5 -242.5t-197 -158.5t-254.5 -54q-103 0 -187 31.5t-141 89.5t-82 144t-10 190q16 115 62.5 206t130.5 202l473 612h201zM674 737q-134 0 -236.5 -84.5t-120.5 -222.5
q-20 -138 57.5 -222.5t211.5 -84.5t236 84.5t122 222.5q18 138 -59.5 222.5t-210.5 84.5z" />
    <glyph glyph-name="seven" unicode="7" 
d="M1188 1450l-23 -160l-762 -1290h-194l772 1290h-700l22 160h885z" />
    <glyph glyph-name="eight" unicode="8" 
d="M309 1096q24 168 157 273.5t310 105.5q178 0 281.5 -105.5t79.5 -273.5q-14 -107 -92.5 -199.5t-190.5 -120.5v-4q125 -28 189 -132t44 -241q-27 -193 -175 -308.5t-347 -115.5t-314.5 115.5t-88.5 308.5q21 138 114 242t226 131v4q-102 28 -154.5 120.5t-38.5 199.5z
M481 1087q-15 -104 43 -171.5t164 -67.5q107 0 184.5 68t92.5 171q14 104 -44.5 172t-164.5 68q-107 0 -184 -68.5t-91 -171.5zM336 412q-17 -126 55 -207.5t195 -81.5t219 81.5t113 207.5q18 126 -54.5 207t-195.5 81t-218 -81t-114 -207z" />
    <glyph glyph-name="nine" unicode="9" 
d="M332 0l473 604l-2 4q-79 -43 -201 -43q-191 0 -297.5 127t-77.5 328q29 208 183.5 331.5t365.5 123.5q137 0 239 -54t152 -158.5t31 -242.5q-17 -116 -64 -208t-130 -200l-472 -612h-200zM670 713q134 0 235 84.5t121 222.5t-58 222.5t-212 84.5t-235.5 -84.5
t-121.5 -222.5t58.5 -222.5t212.5 -84.5z" />
    <glyph glyph-name="colon" unicode=":" horiz-adv-x="569" 
d="M422 983q51 0 82 -36t24 -87q-7 -50 -49 -86.5t-90 -36.5t-80.5 36.5t-25.5 86.5q8 51 48 87t91 36zM317 233q51 0 82 -35.5t25 -86.5q-7 -50 -50 -86.5t-91 -36.5t-80 36.5t-25 86.5q6 51 47 86.5t92 35.5z" />
    <glyph glyph-name="semicolon" unicode=";" horiz-adv-x="569" 
d="M461 209l-236 -492h-157l206 492h187zM422 983q51 0 82 -36t24 -87q-7 -50 -49 -86.5t-90 -36.5t-80.5 36.5t-25.5 86.5q8 51 48 87t91 36z" />
    <glyph glyph-name="less" unicode="&#x3c;" horiz-adv-x="1363" 
d="M1378 1155l-18 -135l-959 -399l846 -400l-18 -135l-1002 475l17 119z" />
    <glyph glyph-name="equal" unicode="=" horiz-adv-x="1363" 
d="M248 713l18 135h1069l-18 -135h-1069zM203 393l18 135h1069l-18 -135h-1069z" />
    <glyph glyph-name="greater" unicode="&#x3e;" horiz-adv-x="1363" 
d="M160 86l18 135l961 400l-848 399l18 135l1004 -475l-17 -119z" />
    <glyph glyph-name="question" unicode="?" horiz-adv-x="987" 
d="M444 406l19 129q5 38 10.5 65.5t19 54t21.5 41t34.5 40.5t40.5 38.5t56 48.5q10 9 46.5 41.5t49.5 45t40.5 42.5t40 51t25.5 51.5t17 61.5q14 100 -36 161.5t-150 61.5q-101 0 -176 -61t-105 -162l-182 21q50 164 182 257t303 93q174 0 273.5 -97t75.5 -268
q-7 -52 -28 -100.5t-42.5 -81.5t-66 -77.5t-69.5 -66t-83 -69.5q-74 -62 -96.5 -101t-34.5 -126l-13 -94h-172zM506 233q51 0 81.5 -35.5t24.5 -86.5q-7 -50 -50 -86.5t-91 -36.5t-79.5 36.5t-24.5 86.5q6 51 47 86.5t92 35.5z" />
    <glyph glyph-name="at" unicode="@" horiz-adv-x="1638" 
d="M621 600q-12 -85 31 -141t120 -56q84 0 170 74.5t140.5 174.5t66.5 186q12 77 -30 134.5t-107 57.5q-91 0 -179.5 -71t-143.5 -169t-68 -190zM1425 1126l-251 -579q-25 -52 -35 -103q-2 -22 8.5 -31.5t36.5 -9.5q65 0 140.5 63.5t134 168.5t73.5 215q16 117 -16.5 217.5
t-101 167t-163.5 104t-202 37.5q-173 0 -331 -89t-262 -238.5t-128 -323.5q-25 -179 40.5 -329.5t198 -236t299.5 -85.5q152 0 302.5 67.5t248.5 180.5h129q-121 -167 -308.5 -263t-387.5 -96q-211 0 -372.5 101.5t-237.5 276.5t-47 384t156.5 384.5t317.5 276.5t398 101
q139 0 259.5 -47t202.5 -128.5t121.5 -199t20.5 -252.5q-18 -127 -81.5 -241t-146.5 -188.5t-172 -118.5t-163 -44q-55 0 -86.5 34.5t-24.5 100.5h-4q-65 -65 -129 -100t-147 -35q-128 0 -195.5 91t-48.5 227q15 107 64.5 210.5t121.5 185.5t170 132.5t203 50.5
q76 0 130 -40.5t73 -127.5h4l55 129h133z" />
    <glyph glyph-name="A" unicode="A" horiz-adv-x="1441" 
d="M12 0l844 1450h162l412 -1450h-201l-99 356h-724l-199 -356h-195zM1087 516l-186 713h-4l-401 -713h591z" />
    <glyph glyph-name="B" unicode="B" horiz-adv-x="1290" 
d="M180 0l205 1450h442q75 0 140.5 -11t124.5 -38t99 -66.5t58.5 -101.5t7.5 -139q-17 -123 -96 -207.5t-203 -120.5l-2 -4q139 -12 219 -113t60 -243q-13 -92 -57 -164t-104.5 -117t-140 -74t-157.5 -40t-164 -11h-432zM535 1290l-66 -454h238q68 0 122.5 9t108 32.5
t88.5 72.5t45 121q7 52 -5 91t-37.5 63t-65 39t-81 20.5t-91.5 5.5h-256zM446 676l-71 -516h291q66 0 128 14t117.5 42.5t93 79t46.5 116.5q10 73 -11.5 126.5t-68 82.5t-103.5 42t-127 13h-295z" />
    <glyph glyph-name="C" unicode="C" horiz-adv-x="1441" 
d="M1522 1260l-164 -109q-51 86 -141 131t-197 45q-118 0 -229 -49.5t-194.5 -132.5t-140 -192.5t-73.5 -227.5q-23 -167 26.5 -304t165 -217.5t275.5 -80.5q260 0 448 203l115 -109q-225 -254 -586 -254q-154 0 -282 57.5t-211.5 158t-120 242.5t-14.5 304q29 211 147 385
t301.5 275.5t394.5 101.5q156 0 282 -56t198 -171z" />
    <glyph glyph-name="D" unicode="D" horiz-adv-x="1517" 
d="M154 0l204 1450h557q90 0 180 -23.5t178 -78.5t151 -136t92 -207t8 -280q-16 -111 -54 -208.5t-90.5 -169.5t-118 -131.5t-135 -99t-143 -66t-141.5 -38.5t-131 -12h-557zM508 1290l-160 -1130h328q127 0 236 33t198 100t148.5 177t80.5 255q20 145 -8.5 255t-98.5 177
t-169.5 100t-226.5 33h-328z" />
    <glyph glyph-name="E" unicode="E" horiz-adv-x="1214" 
d="M180 0l205 1450h911l-22 -160h-739l-66 -454h690l-22 -160h-691l-71 -516h776l-23 -160h-948z" />
    <glyph glyph-name="F" unicode="F" 
d="M180 0l205 1450h899l-22 -160h-727l-68 -479h676l-23 -160h-676l-92 -651h-172z" />
    <glyph glyph-name="G" unicode="G" horiz-adv-x="1593" 
d="M1528 811l-101 -713q-264 -135 -563 -135q-167 0 -302.5 55.5t-223 154.5t-125 241.5t-14.5 310.5q31 223 160 398.5t319 269.5t407 94q325 0 486 -191l-148 -135q-62 79 -161.5 122.5t-210.5 43.5q-251 0 -441 -170t-227 -432q-24 -172 31.5 -309t181.5 -215t301 -78
q89 0 189 22.5t184 61.5l63 444h-334l23 160h506z" />
    <glyph glyph-name="H" unicode="H" horiz-adv-x="1478" 
d="M180 0l205 1450h172l-88 -614h774l88 614h172l-205 -1450h-172l95 676h-775l-94 -676h-172z" />
    <glyph glyph-name="I" unicode="I" horiz-adv-x="532" 
d="M180 0l205 1450h172l-205 -1450h-172z" />
    <glyph glyph-name="J" unicode="J" horiz-adv-x="987" 
d="M1012 1450l-152 -1075q-9 -61 -30.5 -118t-60 -111t-90.5 -94t-127.5 -64.5t-164.5 -24.5q-156 0 -246 79t-96 232l176 35q5 -88 53.5 -137t137.5 -49q71 0 123.5 25.5t84 72t49.5 97.5t27 116l144 1016h172z" />
    <glyph glyph-name="K" unicode="K" horiz-adv-x="1290" 
d="M180 0l205 1450h172l-88 -627h25l747 627h248l-811 -662l641 -788h-252l-586 737h-24l-105 -737h-172z" />
    <glyph glyph-name="L" unicode="L" horiz-adv-x="1024" 
d="M180 0l205 1450h172l-182 -1290h663l-22 -160h-836z" />
    <glyph glyph-name="M" unicode="M" horiz-adv-x="1857" 
d="M180 0l205 1450h256l332 -1137h4l655 1137h250l-205 -1450h-172l170 1217h-4l-690 -1217h-104l-351 1217h-4l-170 -1217h-172z" />
    <glyph glyph-name="N" unicode="N" horiz-adv-x="1593" 
d="M180 0l205 1450h217l670 -1204h4l170 1204h172l-205 -1450h-217l-670 1204h-4l-170 -1204h-172z" />
    <glyph glyph-name="O" unicode="O" horiz-adv-x="1708" 
d="M848 -37q-162 0 -295 58t-218 158.5t-122 242t-14 303.5q30 216 151.5 390.5t308.5 273t404 98.5q162 0 295 -58t218.5 -158.5t123 -242t14.5 -303.5q-30 -216 -152 -390.5t-309.5 -273t-404.5 -98.5zM870 123q125 0 239.5 47.5t200.5 128.5t144.5 191.5t75.5 234.5
q23 166 -29.5 303.5t-173.5 218t-287 80.5t-309 -81t-234 -218t-114 -303t28.5 -303t172 -218t286.5 -81z" />
    <glyph glyph-name="P" unicode="P" horiz-adv-x="1214" 
d="M180 0l205 1450h430q83 0 153.5 -12t132.5 -41t102 -73.5t58 -113.5t5 -157q-13 -91 -53 -163t-94 -116t-122 -72.5t-132 -39.5t-130 -11h-291l-92 -651h-172zM535 1290l-68 -479h291q133 0 219.5 61t103.5 179t-52.5 178.5t-203.5 60.5h-290z" />
    <glyph glyph-name="Q" unicode="Q" horiz-adv-x="1708" 
d="M1704 147l-21 -147h-841q-156 0 -286.5 57.5t-215.5 156t-123 236.5t-16 293q29 207 150 377.5t306 268.5t394 98q156 0 286.5 -57.5t215.5 -156.5t123 -237t16 -293q-27 -189 -147.5 -356.5t-289.5 -234.5v-5h449zM385 743q-22 -162 32 -295.5t172 -210.5t275 -77
t297 77t232 210.5t114 295.5q17 120 -10.5 227.5t-89.5 186t-160.5 124.5t-218.5 46t-231.5 -46t-196 -124.5t-141.5 -186t-74 -227.5z" />
    <glyph glyph-name="R" unicode="R" horiz-adv-x="1251" 
d="M180 0l205 1450h371q97 0 168.5 -7t149 -31t123.5 -65.5t70 -117t9 -178.5q-22 -156 -132 -256t-284 -127l318 -668h-211l-301 651h-222l-92 -651h-172zM535 1290l-68 -479h154q65 0 100.5 1.5t97 7.5t98.5 21.5t78.5 40.5t65 68t31.5 101q8 60 -6.5 104.5t-43 70
t-75 40.5t-90.5 19.5t-101 4.5h-241z" />
    <glyph glyph-name="S" unicode="S" 
d="M1194 1317l-158 -123q-32 66 -97.5 99.5t-147.5 33.5q-80 0 -151.5 -24t-126.5 -81t-67 -139q-13 -99 44 -154.5t225 -111.5q82 -27 127.5 -45.5t106.5 -54.5t90 -76.5t45.5 -105.5t5.5 -148q-15 -105 -69.5 -187.5t-134 -133.5t-173.5 -77t-195 -26q-137 0 -250 49
t-168 152l166 121q33 -77 110.5 -119.5t174.5 -42.5q77 0 151 27.5t131.5 86.5t69.5 138q6 31 3 57.5t-9 47t-20.5 39t-32.5 32.5t-44 28t-55.5 26t-66.5 25.5t-78 27.5q-23 8 -35 12q-64 22 -110.5 44.5t-90 56t-68 73.5t-35.5 97t-1 128q11 81 48 150t90.5 118t121.5 83
t142 50.5t151 16.5q261 0 381 -170z" />
    <glyph glyph-name="T" unicode="T" horiz-adv-x="1175" 
d="M1358 1450l-23 -160h-479l-182 -1290h-172l182 1290h-479l22 160h1131z" />
    <glyph glyph-name="U" unicode="U" horiz-adv-x="1441" 
d="M1473 1450l-127 -897q-14 -97 -44.5 -182.5t-82.5 -161t-122 -129.5t-168 -85.5t-214 -31.5t-205.5 31t-143 86t-86 129.5t-36 161.5t7.5 182l127 897h172l-123 -872q-8 -71 -8.5 -137t19.5 -124t54.5 -101t97 -68t146.5 -25t153.5 25.5t117.5 67.5t83.5 101.5t56 123.5
t30.5 137l122 872h173z" />
    <glyph glyph-name="V" unicode="V" horiz-adv-x="1251" 
d="M537 0l-351 1450h195l278 -1192h5l628 1192h183l-773 -1450h-165z" />
    <glyph glyph-name="W" unicode="W" horiz-adv-x="1972" 
d="M436 0l-219 1450h191l159 -1204h4l527 1204h192l185 -1204h4l506 1204h180l-631 -1450h-186l-187 1229h-4l-532 -1229h-189z" />
    <glyph glyph-name="X" unicode="X" horiz-adv-x="1290" 
d="M-6 0l635 764l-389 686h221l311 -567l467 567h215l-586 -686l428 -764h-227l-340 643l-522 -643h-213z" />
    <glyph glyph-name="Y" unicode="Y" horiz-adv-x="1216" 
d="M522 0l88 625l-424 825h220l315 -655l512 655h207l-658 -825l-88 -625h-172z" />
    <glyph glyph-name="Z" unicode="Z" horiz-adv-x="1175" 
d="M59 0l23 154l997 1136h-825l22 160h1035l-23 -147l-997 -1143h848l-23 -160h-1057z" />
    <glyph glyph-name="bracketleft" unicode="[" horiz-adv-x="530" 
d="M606 1499l-18 -123h-191l-219 -1573h191l-19 -122h-338l256 1818h338z" />
    <glyph glyph-name="backslash" unicode="\" horiz-adv-x="757" 
d="M610 -88l-395 1575l135 49l395 -1573z" />
    <glyph glyph-name="bracketright" unicode="]" horiz-adv-x="530" 
d="M328 1376l18 123h338l-256 -1818h-338l19 122h190l219 1573h-190z" />
    <glyph glyph-name="asciicircum" unicode="^" horiz-adv-x="1363" 
d="M244 563l581 887h123l332 -887h-152l-266 715l-467 -715h-151z" />
    <glyph glyph-name="underscore" unicode="_" horiz-adv-x="1024" 
d="M-37 -256l14 102h1024l-14 -102h-1024z" />
    <glyph glyph-name="grave" unicode="`" horiz-adv-x="491" 
d="M379 1450l170 -295h-146l-249 295h225z" />
    <glyph glyph-name="a" unicode="a" horiz-adv-x="1062" 
d="M342 731l-86 105q82 73 187.5 110t213.5 37q209 0 292 -100t55 -305l-60 -412q-11 -99 -8 -166h-154q-4 41 11 143h-5q-62 -77 -148.5 -122.5t-190.5 -45.5q-153 0 -244 75.5t-72 209.5q9 66 38.5 118.5t68 87t95 59.5t107.5 38.5t118 21t115 9.5t109 2h62l4 29
q13 103 -41 157t-168 54q-170 0 -299 -105zM827 461h-159q-158 0 -253 -45.5t-108 -139.5q-11 -86 40.5 -125.5t148.5 -39.5q132 0 216.5 82t104.5 206z" />
    <glyph glyph-name="b" unicode="b" horiz-adv-x="1251" 
d="M143 0l217 1548h160l-102 -729h4q164 164 366 164q224 0 345 -142t90 -362q-31 -214 -190 -359t-361 -145q-125 0 -215.5 55t-124.5 140h-4l-25 -170h-160zM371 479q-22 -154 56.5 -255t231.5 -101t261.5 101t130.5 255q22 153 -58 255t-233 102q-152 0 -259.5 -101.5
t-129.5 -255.5z" />
    <glyph glyph-name="c" unicode="c" horiz-adv-x="987" 
d="M1077 831l-143 -112q-78 117 -225 117q-155 0 -253.5 -101t-119.5 -256q-22 -151 53 -253.5t219 -102.5q158 0 262 119l103 -113q-154 -154 -385 -154q-221 0 -338 140.5t-86 363.5q31 220 188 362t377 142q228 0 348 -152z" />
    <glyph glyph-name="d" unicode="d" horiz-adv-x="1251" 
d="M948 0l25 170h-4q-59 -85 -166 -140t-232 -55q-132 0 -232.5 65.5t-147.5 181.5t-27 257q31 220 190 362t383 142q203 0 322 -164h4l102 729h160l-217 -1548h-160zM1016 479q22 153 -58 255t-233 102q-152 0 -259.5 -101.5t-129.5 -255.5t57 -255t232 -101t261 101
t130 255z" />
    <glyph glyph-name="e" unicode="e" 
d="M924 268l108 -94q-97 -106 -207 -152.5t-247 -46.5q-110 0 -196.5 39.5t-138.5 108t-73 160t-6 196.5q31 222 189.5 363t371.5 141q206 0 312 -134t73 -368l-6 -51h-774q-9 -128 65.5 -217.5t202.5 -89.5q193 0 326 145zM348 565h602q12 123 -55 197t-197 74t-223.5 -74
t-126.5 -197z" />
    <glyph glyph-name="f" unicode="f" horiz-adv-x="645" 
d="M233 0l117 823h-209l19 135h209l30 216q13 91 40 161t73 125t117.5 84t165.5 29q73 0 118 -25l-43 -143q-55 20 -104 20q-35 0 -63 -8t-47.5 -19t-35 -34t-25 -42.5t-18.5 -54t-13 -59.5t-11 -69l-25 -181h234l-19 -135h-233l-117 -823h-160z" />
    <glyph glyph-name="g" unicode="g" horiz-adv-x="1251" 
d="M1243 958l-129 -915q-37 -259 -191.5 -397t-406.5 -138q-143 0 -250.5 43t-193.5 140l133 131q65 -84 144.5 -125t187.5 -41q362 0 417 387l17 123h-4q-66 -88 -164 -133t-199 -45q-225 0 -348 139t-92 352q32 233 190 368.5t389 135.5q104 0 192 -48.5t122 -139.5h4
l22 163h160zM336 479q-20 -145 64.5 -244.5t224.5 -99.5q158 0 264.5 101.5t126.5 246.5q22 156 -59.5 254.5t-233.5 98.5q-149 0 -257 -102t-130 -255z" />
    <glyph glyph-name="h" unicode="h" 
d="M152 0l217 1548h159l-100 -723h4q44 63 133.5 110.5t194.5 47.5q183 0 260 -105.5t51 -285.5l-84 -592h-160l80 575q18 123 -27 192t-155 69q-150 0 -237 -98.5t-111 -270.5l-66 -467h-159z" />
    <glyph glyph-name="i" unicode="i" horiz-adv-x="491" 
d="M166 0l135 958h160l-135 -958h-160zM315 1333q8 48 47.5 82.5t88.5 34.5t77.5 -34.5t20.5 -82.5q-6 -51 -44 -83.5t-89 -32.5t-79 32.5t-22 83.5z" />
    <glyph glyph-name="j" unicode="j" horiz-adv-x="491" 
d="M461 958l-166 -1173q-5 -33 -16 -66.5t-36 -73t-59 -68.5t-89.5 -49t-123.5 -20q-63 0 -106 21l37 139q41 -12 75 -12q83 0 119.5 53t48.5 150l156 1099h160zM315 1333q8 48 47.5 82.5t88.5 34.5t77.5 -34.5t20.5 -82.5q-6 -51 -44 -83.5t-89 -32.5t-79 32.5t-22 83.5z
" />
    <glyph glyph-name="k" unicode="k" horiz-adv-x="1024" 
d="M152 0l217 1548h159l-141 -1011l496 421h227l-524 -436l436 -522h-236l-403 504l-72 -504h-159z" />
    <glyph glyph-name="l" unicode="l" horiz-adv-x="491" 
d="M166 0l217 1548h160l-217 -1548h-160z" />
    <glyph glyph-name="m" unicode="m" horiz-adv-x="1744" 
d="M152 0l102 731q6 43 13 119t12 108h151q-4 -26 -9 -78.5t-9 -78.5h4q44 76 137.5 129t206.5 53q59 0 106 -13.5t74.5 -31t49 -45.5t30.5 -47t18 -45q69 90 146.5 136t181.5 46q101 0 169 -28t101.5 -79.5t43.5 -126t-5 -167.5l-82 -582h-159l79 573q36 263 -196 263
q-104 0 -186.5 -78.5t-100.5 -204.5l-78 -553h-159l75 543q23 157 -10.5 225t-132.5 68q-150 0 -237 -98.5t-111 -270.5l-66 -467h-159z" />
    <glyph glyph-name="n" unicode="n" 
d="M152 0l102 731q6 43 13 119t12 108h151q-4 -26 -9 -78.5t-9 -78.5h4q44 76 137.5 129t206.5 53q183 0 260 -105.5t51 -285.5l-84 -592h-160l80 575q18 123 -27 192t-155 69q-150 0 -237 -98.5t-111 -270.5l-66 -467h-159z" />
    <glyph glyph-name="o" unicode="o" horiz-adv-x="1216" 
d="M164 479q31 223 194.5 363.5t386.5 140.5q146 0 254 -63t158.5 -178.5t30.5 -262.5q-32 -223 -196.5 -363.5t-387.5 -140.5t-347.5 140.5t-92.5 363.5zM336 479q-22 -154 57 -255t232 -101t261 101t130 255q22 153 -58 255t-233 102q-152 0 -259.5 -101.5t-129.5 -255.5z
" />
    <glyph glyph-name="p" unicode="p" horiz-adv-x="1251" 
d="M78 -467l201 1425h159l-20 -139h4q164 164 366 164q224 0 345 -142t90 -362q-31 -214 -190 -359t-361 -145q-125 0 -215.5 55t-124.5 140h-4l-90 -637h-160zM371 479q-22 -154 56.5 -255t231.5 -101t261.5 101t130.5 255q22 153 -58 255t-233 102q-152 0 -259.5 -101.5
t-129.5 -255.5z" />
    <glyph glyph-name="q" unicode="q" horiz-adv-x="1251" 
d="M1243 958l-201 -1425h-159l86 606h-4q-164 -164 -369 -164q-224 0 -343.5 142t-88.5 362q31 215 189 359.5t360 144.5q125 0 216.5 -55t125.5 -140h4l24 170h160zM1016 479q22 153 -58 255t-233 102q-152 0 -259.5 -101.5t-129.5 -255.5t57 -255t232 -101t261 101
t130 255z" />
    <glyph glyph-name="r" unicode="r" horiz-adv-x="720" 
d="M152 0l102 731q6 43 13 119t12 108h151q-4 -26 -9 -78.5t-9 -78.5h4q44 76 137.5 129t206.5 53q36 0 65 -10l-32 -162q-41 12 -84 12q-142 0 -225 -93t-107 -263l-66 -467h-159z" />
    <glyph glyph-name="s" unicode="s" horiz-adv-x="872" 
d="M68 154l139 98q44 -64 95.5 -96.5t131.5 -32.5q85 0 154 37.5t80 109.5q4 29 -5.5 52.5t-24.5 38t-44.5 27.5t-51.5 19t-59 15q-85 20 -128 34t-95 44.5t-69 79.5t-7 120q13 89 75.5 155t146.5 97t176 31q107 0 187.5 -43t115.5 -131l-148 -88q-52 115 -186 115
q-73 0 -136 -35.5t-71 -98.5q-4 -29 12 -51.5t50 -39t71 -27t90 -21.5q68 -14 116.5 -32.5t90.5 -50.5t59 -83t7 -121q-11 -78 -52.5 -138t-101.5 -94.5t-129 -51.5t-143 -17q-127 0 -209.5 40.5t-136.5 138.5z" />
    <glyph glyph-name="t" unicode="t" horiz-adv-x="720" 
d="M811 958l-18 -135h-283l-68 -479q-8 -63 -10.5 -112t26.5 -79t95 -30q80 0 147 33l-14 -146q-83 -35 -192 -35q-83 0 -134 22.5t-71.5 64t-23.5 101t9 134.5l76 526h-209l19 135h209l37 273h159l-37 -273h283z" />
    <glyph glyph-name="u" unicode="u" 
d="M1122 958l-102 -731q-7 -49 -14.5 -125.5t-10.5 -101.5h-151q4 26 9 79t9 79h-4q-46 -76 -140 -129.5t-206 -53.5q-182 0 -258.5 105.5t-50.5 286.5l84 591h159l-81 -575q-18 -123 27 -191.5t155 -68.5q150 0 238 99t112 270l66 466h159z" />
    <glyph glyph-name="v" unicode="v" horiz-adv-x="987" 
d="M1102 958l-514 -958h-176l-256 958h186l193 -751h4l391 751h172z" />
    <glyph glyph-name="w" unicode="w" horiz-adv-x="1517" 
d="M1624 958l-444 -958h-158l-168 737h-4l-346 -737h-164l-176 958h176l115 -737h4l352 737h168l147 -737h4l322 737h172z" />
    <glyph glyph-name="x" unicode="x" horiz-adv-x="1024" 
d="M6 0l465 516l-281 442h209l205 -344l289 344h194l-393 -442l324 -516h-211l-246 414l-356 -414h-199z" />
    <glyph glyph-name="y" unicode="y" horiz-adv-x="987" 
d="M1102 958l-629 -1177q-37 -69 -66.5 -112.5t-71.5 -83.5t-96 -58.5t-124 -18.5q-89 0 -140 25l41 139q41 -16 109 -16q72 0 116.5 39.5t84.5 118.5l92 180l-262 964h186l190 -751h5l391 751h174z" />
    <glyph glyph-name="z" unicode="z" horiz-adv-x="909" 
d="M61 0l19 125l661 698h-538l18 135h748l-19 -122l-661 -701h577l-18 -135h-787z" />
    <glyph glyph-name="braceleft" unicode="{" horiz-adv-x="681" 
d="M813 1499l-18 -123h-111q-31 0 -53.5 -13t-36 -38t-21 -50.5t-12.5 -60.5l-49 -360q-9 -64 -37 -115.5t-63 -81t-63 -44.5t-50 -21l-2 -4q17 -2 35.5 -10t42 -27t38.5 -48.5t24 -74t-1 -104.5l-49 -359q-24 -162 78 -162h110l-18 -122h-143q-84 0 -140 69.5t-38 186.5
l49 358q14 105 -30.5 169t-113.5 64l19 123q68 0 131.5 65.5t77.5 166.5l49 360q18 116 95 186t157 70h143z" />
    <glyph glyph-name="bar" unicode="|" horiz-adv-x="753" 
d="M414 1704h133v-2271h-133v2271z" />
    <glyph glyph-name="braceright" unicode="}" horiz-adv-x="681" 
d="M272 1376l19 123h143q80 0 137.5 -70t40.5 -186l-49 -360q-14 -101 31 -166.5t113 -65.5l-19 -123q-69 0 -132 -64t-77 -169l-49 -358q-18 -117 -93.5 -186.5t-158.5 -69.5h-143l18 122h111q58 0 85 44t38 118l49 359q10 71 38 125t62.5 81.5t62.5 41t50 16.5l2 4
q-17 4 -35.5 14t-41.5 30.5t-38 49.5t-24.5 71.5t0.5 96.5l49 360q24 162 -78 162h-111z" />
    <glyph glyph-name="asciitilde" unicode="~" horiz-adv-x="1363" 
d="M1192 762l55 -98q-33 -37 -47.5 -53t-47.5 -46.5t-57 -44t-59.5 -25.5t-72.5 -12q-35 0 -73 10t-62.5 21t-65.5 31q-8 4 -50 25.5t-58.5 28t-50 15.5t-64.5 9q-107 0 -193 -144l-53 99q39 45 59.5 66.5t58.5 53.5t77.5 46t84.5 14q35 0 73 -10t62.5 -21t65.5 -31
q8 -4 50 -25.5t58.5 -28t50 -15.5t64.5 -9q105 0 195 144z" />
    <glyph glyph-name="uni00A0" unicode="&#xa0;" horiz-adv-x="569" 
 />
    <glyph glyph-name="exclamdown" unicode="&#xa1;" horiz-adv-x="569" 
d="M135 -455l146 1045h172l-146 -1045h-172zM391 762q-51 0 -81.5 36t-22.5 87q6 50 48.5 86.5t90.5 36.5t80 -36.5t26 -86.5q-8 -51 -49 -87t-92 -36z" />
    <glyph glyph-name="cent" unicode="&#xa2;" 
d="M586 125l98 706q-128 -24 -207.5 -120t-99.5 -232q-19 -132 37.5 -229t171.5 -125zM545 -160l18 135q-191 25 -289 162.5t-69 341.5q28 202 166 340.5t334 157.5l20 141h98l-20 -135q205 -10 315 -152l-143 -112q-72 105 -193 117l-100 -713q135 9 229 119l103 -113
q-141 -141 -352 -154l-19 -135h-98z" />
    <glyph glyph-name="sterling" unicode="&#xa3;" 
d="M117 0l22 160h221l72 516h-196l20 135h197l22 164q14 104 47.5 188t80.5 142t108 96.5t128.5 56t143.5 17.5q204 0 311 -127l-129 -121q-90 100 -207 100q-144 0 -216 -92t-95 -264l-22 -160h331l-20 -135h-332l-72 -516h504l-22 -160h-897z" />
    <glyph glyph-name="currency" unicode="&#xa4;" 
d="M319 725q-20 -144 69.5 -254.5t232.5 -110.5t262.5 110.5t140.5 254.5q20 150 -68.5 257.5t-232.5 107.5q-145 0 -264.5 -108t-139.5 -257zM100 303l127 113q-91 139 -67 309q25 179 153 311l-94 111l103 90l94 -109q156 109 327 109q170 0 295 -109l127 109l78 -90
l-127 -111q92 -134 68 -311q-24 -170 -154 -309l94 -113l-102 -90l-96 113q-158 -113 -326 -113q-165 0 -297 113l-125 -113z" />
    <glyph glyph-name="yen" unicode="&#xa5;" 
d="M483 0l49 356h-325l18 123h326l20 146l-14 32h-307l18 123h234l-297 670h205l270 -670l459 670h204l-485 -670h234l-19 -123h-307l-23 -32l-20 -146h326l-19 -123h-325l-50 -356h-172z" />
    <glyph glyph-name="brokenbar" unicode="&#xa6;" horiz-adv-x="751" 
d="M414 1534h131v-795h-131v795zM414 397h131v-792h-131v792z" />
    <glyph glyph-name="section" unicode="&#xa7;" 
d="M1130 1294l-165 -84q-14 64 -68 96.5t-125 32.5q-87 0 -158 -45t-82 -131q-15 -99 70 -147l186 -101q66 -34 103 -57.5t85.5 -65.5t67 -95.5t9.5 -118.5q-13 -90 -70 -159t-145 -114q128 -91 106 -252q-13 -85 -58 -153t-110.5 -110t-142 -63.5t-156.5 -21.5
q-139 0 -238 63.5t-130 188.5l167 74q14 -90 76 -134t158 -44q94 0 164.5 47t83.5 141q5 39 -5.5 69.5t-42 56.5t-49.5 37t-62 33q-11 6 -17 9l-232 131q-66 36 -95.5 102t-18.5 148q26 187 247 286q-145 87 -125 242q11 79 54 143.5t104.5 105t134.5 62t148 21.5
q115 0 207 -48t124 -145zM549 463l170 -88q58 23 104.5 72.5t53.5 105.5q6 41 -6.5 75t-43 61.5t-54.5 43.5t-64 37l-111 59q-35 -14 -53 -21.5t-48.5 -24.5t-47 -33t-31.5 -41.5t-19 -55.5q-4 -31 3.5 -57t20 -44t37 -36t42 -28t47.5 -25z" />
    <glyph glyph-name="dieresis" unicode="&#xa8;" horiz-adv-x="491" 
d="M240 1401q45 0 73.5 -33t22.5 -78q-8 -46 -44.5 -78t-82.5 -32t-73.5 32t-20.5 78q6 45 43 78t82 33zM645 1401q45 0 73.5 -33t22.5 -78q-8 -46 -44.5 -78t-82.5 -32t-73.5 32t-20.5 78q6 45 43 78t82 33z" />
    <glyph glyph-name="copyright" unicode="&#xa9;" horiz-adv-x="1638" 
d="M1184 578h127q-54 -147 -169 -233.5t-255 -86.5q-204 0 -311.5 132.5t-77.5 334.5q28 206 167.5 335.5t346.5 129.5q150 0 243.5 -80.5t94.5 -228.5h-125q-5 87 -67 142.5t-161 55.5q-148 0 -244.5 -99t-119.5 -255q-21 -146 52.5 -251t215.5 -105q99 0 177 59t106 150z
M160 725q22 159 103 301.5t197.5 243t265 159t302.5 58.5q153 0 285 -58.5t221 -159t130 -243t19 -301.5q-30 -212 -158.5 -388t-317.5 -275t-394 -99q-154 0 -285.5 58.5t-220 159t-129 243t-18.5 301.5zM295 725q-26 -181 36 -331t193.5 -235t304.5 -85q172 0 327.5 85
t260.5 235t131 331q19 136 -13.5 257t-104.5 207.5t-180.5 136.5t-237.5 50q-173 0 -328.5 -85t-259.5 -235t-129 -331z" />
    <glyph glyph-name="ordfeminine" unicode="&#xaa;" horiz-adv-x="690" 
d="M786 1231l-36 -262q-1 -15 -2.5 -44.5t-2.5 -43.5h-124q3 57 8 92h-4q-65 -105 -219 -105q-97 0 -150 46.5t-41 134.5q6 39 24.5 70.5t42.5 51.5t60.5 34t67 21.5t74 11.5t69.5 4.5t65 0.5h48l4 29q5 34 -30.5 63t-104.5 29q-57 0 -111.5 -19.5t-81.5 -44.5l-51 86
q109 89 258 89q144 0 200 -60t37 -184zM653 1145h-98q-29 0 -46.5 -0.5t-49 -5.5t-51 -14t-37 -28t-21.5 -46q-4 -33 25.5 -52.5t81.5 -19.5q78 0 130.5 41t59.5 90z" />
    <glyph glyph-name="guillemotleft" unicode="&#xab;" horiz-adv-x="1024" 
d="M645 856l-291 -364l189 -365l-123 -74l-232 439l355 438zM1026 856l-291 -364l189 -365l-123 -74l-232 439l355 438z" />
    <glyph glyph-name="logicalnot" unicode="&#xac;" horiz-adv-x="1363" 
d="M248 713l18 135h1069l-80 -569h-135l62 434h-934z" />
    <glyph glyph-name="uni00AD" unicode="&#xad;" horiz-adv-x="681" 
d="M150 418l20 147h502l-21 -147h-501z" />
    <glyph glyph-name="registered" unicode="&#xae;" horiz-adv-x="1638" 
d="M567 281l125 890h336q158 0 227 -63t50 -190q-16 -115 -88.5 -174t-182.5 -70l201 -393h-145l-187 383h-145l-56 -383h-135zM813 1061l-41 -287h139q44 0 72.5 1.5t64.5 10t58 24t40 44.5t23 70q5 35 -3.5 61t-24.5 40.5t-43 22.5t-51 10.5t-56 2.5h-178zM160 725
q22 159 103 301.5t197.5 243t265 159t302.5 58.5q153 0 285 -58.5t221 -159t130 -243t19 -301.5q-30 -212 -158.5 -388t-317.5 -275t-394 -99q-154 0 -285.5 58.5t-220 159t-129 243t-18.5 301.5zM295 725q-26 -181 36 -331t193.5 -235t304.5 -85q172 0 327.5 85t260.5 235
t131 331q19 136 -13.5 257t-104.5 207.5t-180.5 136.5t-237.5 50q-173 0 -328.5 -85t-259.5 -235t-129 -331z" />
    <glyph glyph-name="macron" unicode="&#xaf;" horiz-adv-x="491" 
d="M719 1352l-19 -123h-565l19 123h565z" />
    <glyph glyph-name="degree" unicode="&#xb0;" horiz-adv-x="819" 
d="M283 1182q17 123 113.5 208t219.5 85t196 -85t56 -208t-113.5 -208t-219.5 -85t-196 85t-56 208zM393 1182q-10 -67 35 -125t123 -58t137.5 57.5t69.5 125.5q10 67 -34 124.5t-122 57.5t-138.5 -57.5t-70.5 -124.5z" />
    <glyph glyph-name="plusminus" unicode="&#xb1;" horiz-adv-x="1363" 
d="M242 676l20 135h467l47 344h135l-47 -344h467l-20 -135h-467l-47 -344h-135l47 344h-467zM160 86l18 135h1069l-18 -135h-1069z" />
    <glyph glyph-name="twosuperior" unicode="&#xb2;" horiz-adv-x="739" 
d="M150 592l16 119l387 309q75 59 108 99.5t41 99.5q9 65 -28.5 105t-98.5 40q-65 0 -116.5 -37t-73.5 -100l-127 10q34 119 121.5 178.5t206.5 59.5q125 0 197.5 -65t54.5 -191q-6 -40 -22.5 -77.5t-34 -63.5t-51 -58t-55 -50t-63.5 -50l-276 -213v-5h436l-14 -110h-608z
" />
    <glyph glyph-name="threesuperior" unicode="&#xb3;" horiz-adv-x="739" 
d="M426 991l16 111h35q31 0 60 5t62 18.5t56 44t29 73.5q9 62 -26.5 91.5t-100.5 29.5q-125 0 -178 -86l-107 51q93 146 299 146q119 0 191.5 -60t58.5 -168q-10 -67 -63 -122.5t-127 -75.5v-5q87 -12 130 -72.5t32 -144.5q-17 -117 -115.5 -182t-231.5 -65q-240 0 -274 188
l117 47q11 -50 53 -87.5t119 -37.5q73 0 130 38t66 106q6 46 -9 78.5t-47 48.5t-66.5 23t-75.5 7h-33z" />
    <glyph glyph-name="acute" unicode="&#xb4;" horiz-adv-x="491" 
d="M266 1155l256 295h226l-336 -295h-146z" />
    <glyph glyph-name="mu" unicode="&#xb5;" 
d="M1122 958l-102 -731q-7 -49 -14.5 -125.5t-10.5 -101.5h-151q4 26 9 79t9 79h-4q-46 -76 -140 -129.5t-206 -53.5q-117 0 -197 52l-69 -494h-160l201 1425h159l-81 -575q-18 -123 27 -191.5t155 -68.5q150 0 238 99t112 270l66 466h159z" />
    <glyph glyph-name="paragraph" unicode="&#xb6;" horiz-adv-x="1228" 
d="M561 -258l127 905q-186 0 -291 110t-82 271q28 198 169 310t358 112h497l-241 -1708h-148l221 1573h-241l-221 -1573h-148z" />
    <glyph glyph-name="periodcentered" unicode="&#xb7;" horiz-adv-x="569" 
d="M391 756q51 0 81.5 -36t23.5 -87q-6 -50 -49 -86.5t-91 -36.5t-80 36.5t-26 86.5q8 51 49 87t92 36z" />
    <glyph glyph-name="cedilla" unicode="&#xb8;" horiz-adv-x="491" 
d="M324 0l-111 -131q72 8 74 8q62 0 107.5 -36.5t35.5 -104.5q-8 -62 -52 -104t-98 -59t-114 -17q-114 0 -199 43l47 75q66 -32 142 -32q30 0 57.5 6.5t51.5 26.5t28 51q5 39 -24 58t-70 19q-30 0 -84 -16l-35 39l151 174h93z" />
    <glyph glyph-name="onesuperior" unicode="&#xb9;" horiz-adv-x="739" 
d="M438 592l101 721h-4l-185 -135l-55 94l280 190h119l-121 -870h-135z" />
    <glyph glyph-name="ordmasculine" unicode="&#xba;" horiz-adv-x="790" 
d="M227 1174q19 133 124.5 217t250.5 84q146 0 229 -84t64 -217q-20 -137 -125.5 -221.5t-251.5 -84.5t-228.5 84.5t-62.5 221.5zM362 1174q-11 -80 35 -137.5t135 -57.5t153 58t75 137q10 76 -37 133t-135 57q-89 0 -153 -57t-73 -133z" />
    <glyph glyph-name="guillemotright" unicode="&#xbb;" horiz-adv-x="1024" 
d="M137 127l291 365l-188 364l122 74l232 -438l-354 -439zM518 127l291 365l-188 364l122 74l232 -438l-354 -439z" />
    <glyph glyph-name="onequarter" unicode="&#xbc;" horiz-adv-x="1708" 
d="M1636 870l-82 -575h115l-14 -111h-115l-27 -184h-135l27 184h-399l18 129l453 557h159zM305 0l1122 1516l105 -66l-1122 -1516zM1419 295l60 416h-4l-332 -416h276zM401 592l101 723h-4l-185 -137l-55 94l281 190h118l-120 -870h-136z" />
    <glyph glyph-name="onehalf" unicode="&#xbd;" horiz-adv-x="1708" 
d="M270 0l1123 1516l104 -66l-1122 -1516zM389 592l100 723h-4l-184 -137l-55 94l280 190h119l-121 -870h-135zM1032 0l17 119l387 309q75 59 108 99.5t41 99.5q9 65 -28.5 105t-98.5 40q-65 0 -116.5 -37t-71.5 -100l-129 10q35 119 122.5 178.5t206.5 59.5
q125 0 196.5 -65t53.5 -191q-7 -50 -26.5 -92t-55.5 -81t-63.5 -62.5t-79.5 -63.5l-274 -213v-4h436l-17 -111h-608z" />
    <glyph glyph-name="threequarters" unicode="&#xbe;" horiz-adv-x="1708" 
d="M1665 870l-82 -575h115l-15 -111h-114l-27 -184h-135l27 184h-400l19 129l452 557h160zM385 0l1122 1516l105 -66l-1123 -1516zM1448 295l59 416h-4l-329 -412l-3 -4h277zM416 991l16 111h33q32 0 61 5t62.5 18.5t56.5 44t29 73.5q9 62 -26.5 91.5t-100.5 29.5
q-125 0 -178 -86l-107 51q93 146 299 146q119 0 191.5 -60t58.5 -168q-10 -67 -63 -122.5t-127 -75.5v-5q87 -12 129.5 -72.5t31.5 -144.5q-17 -117 -115 -182t-231 -65q-239 0 -276 188l119 47q11 -50 53 -87.5t119 -37.5q73 0 130 38t66 106q6 46 -9 78.5t-47 48.5
t-66.5 23t-75.5 7h-33z" />
    <glyph glyph-name="questiondown" unicode="&#xbf;" horiz-adv-x="987" 
d="M731 -121l180 -20q-50 -164 -182.5 -257.5t-302.5 -93.5q-174 0 -273 97t-75 268q6 38 19 74t25 62t39.5 60t41.5 51t52.5 52t52 46.5t59.5 49.5q74 62 96.5 101t34.5 127l12 94h172l-16 -129q-9 -57 -19.5 -92.5t-37.5 -71t-47.5 -55t-78.5 -70.5q-8 -7 -40.5 -35.5
t-43 -38.5t-36 -35.5t-37 -42t-27 -41t-23.5 -49t-12 -51.5q-14 -100 35.5 -161.5t149.5 -61.5q101 0 176.5 61t105.5 162zM621 762q-51 0 -81.5 36t-23.5 87q6 50 48.5 86.5t90.5 36.5t80.5 -36.5t26.5 -86.5q-8 -51 -49 -87t-92 -36z" />
    <glyph glyph-name="Agrave" unicode="&#xc0;" horiz-adv-x="1441" 
d="M12 0l844 1450h162l412 -1450h-201l-99 356h-724l-199 -356h-195zM1087 516l-186 713h-4l-401 -713h591zM909 1847l172 -295h-145l-252 295h225z" />
    <glyph glyph-name="Aacute" unicode="&#xc1;" horiz-adv-x="1441" 
d="M12 0l844 1450h162l412 -1450h-201l-99 356h-724l-199 -356h-195zM1087 516l-186 713h-4l-401 -713h591zM799 1552l254 295h225l-334 -295h-145z" />
    <glyph glyph-name="Acircumflex" unicode="&#xc2;" horiz-adv-x="1441" 
d="M12 0l844 1450h162l412 -1450h-201l-99 356h-724l-199 -356h-195zM1087 516l-186 713h-4l-401 -713h591zM618 1552l269 295h186l189 -295h-166l-133 209l-189 -209h-156z" />
    <glyph glyph-name="Atilde" unicode="&#xc3;" horiz-adv-x="1441" 
d="M12 0l844 1450h162l412 -1450h-201l-99 356h-724l-199 -356h-195zM1087 516l-186 713h-4l-401 -713h591zM698 1577h-98q28 88 89.5 150.5t146.5 62.5q28 0 61 -8.5t48.5 -15t55.5 -23.5q9 -4 25.5 -12t25.5 -12t24 -7.5t30 -3.5q74 0 111 90h98q-27 -91 -81.5 -152
t-137.5 -61q-59 0 -160 43q-5 2 -23 10t-27 11t-24.5 8.5t-29.5 7.5t-27 2q-36 0 -64 -26t-43 -64z" />
    <glyph glyph-name="Adieresis" unicode="&#xc4;" horiz-adv-x="1441" 
d="M12 0l844 1450h162l412 -1450h-201l-99 356h-724l-199 -356h-195zM1087 516l-186 713h-4l-401 -713h591zM770 1798q45 0 73.5 -32.5t22.5 -77.5q-6 -46 -43.5 -78.5t-83.5 -32.5t-73 32.5t-21 78.5q6 45 43 77.5t82 32.5zM1176 1798q45 0 73.5 -32.5t22.5 -77.5
q-6 -46 -43.5 -78.5t-83.5 -32.5t-73 32.5t-21 78.5q6 45 43 77.5t82 32.5z" />
    <glyph glyph-name="Aring" unicode="&#xc5;" horiz-adv-x="1441" 
d="M12 0l844 1450h162l412 -1450h-201l-99 356h-724l-199 -356h-195zM1087 516l-186 713h-4l-401 -713h591zM758 1698q11 83 77 143t152 60q87 0 137 -59.5t39 -143.5q-12 -84 -78 -143.5t-153 -59.5t-136.5 59.5t-37.5 143.5zM844 1698q-7 -49 23.5 -83t76.5 -34t86 33.5
t47 83.5q6 49 -24.5 83t-75.5 34q-46 0 -86.5 -34.5t-46.5 -82.5z" />
    <glyph glyph-name="AE" unicode="&#xc6;" horiz-adv-x="1933" 
d="M-20 0l1146 1450h891l-22 -160h-602l-66 -454h565l-22 -160h-565l-72 -516h627l-23 -160h-799l56 393h-600l-308 -393h-206zM1116 553l105 737h-25l-578 -737h498z" />
    <glyph glyph-name="Ccedilla" unicode="&#xc7;" horiz-adv-x="1441" 
d="M1522 1260l-164 -109q-51 86 -141 131t-197 45q-118 0 -229 -49.5t-194.5 -132.5t-140 -192.5t-73.5 -227.5q-23 -167 26.5 -304t165 -217.5t275.5 -80.5q260 0 448 203l115 -109q-225 -254 -586 -254l-77 -94q5 1 18 3t26.5 3.5t28.5 1.5q62 0 108 -36.5t36 -104.5
q-8 -62 -52 -104t-98.5 -59t-114.5 -17q-113 0 -198 43l47 75q66 -32 141 -32q30 0 57.5 6.5t51.5 26.5t28 51q5 39 -24 58t-70 19q-30 0 -84 -16l-35 39l125 143q-276 30 -430 240.5t-112 515.5q29 211 147 385t301.5 275.5t394.5 101.5q156 0 282 -56t198 -171z" />
    <glyph glyph-name="Egrave" unicode="&#xc8;" horiz-adv-x="1214" 
d="M180 0l205 1450h911l-22 -160h-739l-66 -454h690l-22 -160h-691l-71 -516h776l-23 -160h-948zM797 1847l172 -295h-146l-252 295h226z" />
    <glyph glyph-name="Eacute" unicode="&#xc9;" horiz-adv-x="1214" 
d="M180 0l205 1450h911l-22 -160h-739l-66 -454h690l-22 -160h-691l-71 -516h776l-23 -160h-948zM686 1552l254 295h225l-334 -295h-145z" />
    <glyph glyph-name="Ecircumflex" unicode="&#xca;" horiz-adv-x="1214" 
d="M180 0l205 1450h911l-22 -160h-739l-66 -454h690l-22 -160h-691l-71 -516h776l-23 -160h-948zM506 1552l268 295h187l188 -295h-166l-133 209l-188 -209h-156z" />
    <glyph glyph-name="Edieresis" unicode="&#xcb;" horiz-adv-x="1214" 
d="M180 0l205 1450h911l-22 -160h-739l-66 -454h690l-22 -160h-691l-71 -516h776l-23 -160h-948zM657 1798q46 0 74.5 -33t22.5 -77q-6 -46 -43.5 -78.5t-83.5 -32.5t-73.5 32.5t-21.5 78.5q6 45 43 77.5t82 32.5zM1063 1798q45 0 73.5 -32.5t22.5 -77.5q-6 -46 -43.5 -78.5
t-83.5 -32.5t-73 32.5t-21 78.5q6 45 43 77.5t82 32.5z" />
    <glyph glyph-name="Igrave" unicode="&#xcc;" horiz-adv-x="532" 
d="M180 0l205 1450h172l-205 -1450h-172zM455 1847l172 -295h-146l-252 295h226z" />
    <glyph glyph-name="Iacute" unicode="&#xcd;" horiz-adv-x="532" 
d="M180 0l205 1450h172l-205 -1450h-172zM344 1552l254 295h225l-334 -295h-145z" />
    <glyph glyph-name="Icircumflex" unicode="&#xce;" horiz-adv-x="532" 
d="M180 0l205 1450h172l-205 -1450h-172zM164 1552l268 295h186l189 -295h-166l-133 209l-189 -209h-155z" />
    <glyph glyph-name="Idieresis" unicode="&#xcf;" horiz-adv-x="532" 
d="M180 0l205 1450h172l-205 -1450h-172zM315 1798q46 0 74.5 -33t22.5 -77q-6 -46 -43.5 -78.5t-83.5 -32.5t-73.5 32.5t-21.5 78.5q6 45 43 77.5t82 32.5zM721 1798q45 0 73.5 -32.5t22.5 -77.5q-6 -46 -43.5 -78.5t-83.5 -32.5t-73 32.5t-21 78.5q6 45 43 77.5t82 32.5z
" />
    <glyph glyph-name="Eth" unicode="&#xd0;" horiz-adv-x="1517" 
d="M270 823l88 627h557q90 0 180 -23.5t178 -78.5t151 -136t92 -207t8 -280q-16 -111 -54 -208.5t-90.5 -169.5t-118 -131.5t-135 -99t-143 -66t-141.5 -38.5t-131 -12h-557l96 688h-148l21 135h147zM508 1290l-66 -467h516l-20 -135h-516l-74 -528h328q127 0 236 33
t198 100t148.5 177t80.5 255q20 145 -8.5 255t-98.5 177t-169.5 100t-226.5 33h-328z" />
    <glyph glyph-name="Ntilde" unicode="&#xd1;" horiz-adv-x="1593" 
d="M180 0l205 1450h217l670 -1204h4l170 1204h172l-205 -1450h-217l-670 1204h-4l-170 -1204h-172zM774 1577h-98q28 89 89 151t146 62q28 0 61 -8.5t49.5 -15t55.5 -23.5q9 -4 25.5 -12t25.5 -12t24 -7.5t30 -3.5q73 0 110 90h99q-27 -90 -82 -151.5t-138 -61.5
q-58 0 -159 43q-5 2 -23 10t-27 11t-24.5 8.5t-29.5 7.5t-27 2q-36 0 -64 -26t-43 -64z" />
    <glyph glyph-name="Ograve" unicode="&#xd2;" horiz-adv-x="1708" 
d="M848 -37q-162 0 -295 58t-218 158.5t-122 242t-14 303.5q30 216 151.5 390.5t308.5 273t404 98.5q162 0 295 -58t218.5 -158.5t123 -242t14.5 -303.5q-30 -216 -152 -390.5t-309.5 -273t-404.5 -98.5zM870 123q125 0 239.5 47.5t200.5 128.5t144.5 191.5t75.5 234.5
q23 166 -29.5 303.5t-173.5 218t-287 80.5t-309 -81t-234 -218t-114 -303t28.5 -303t172 -218t286.5 -81zM1042 1847l172 -295h-145l-252 295h225z" />
    <glyph glyph-name="Oacute" unicode="&#xd3;" horiz-adv-x="1708" 
d="M848 -37q-162 0 -295 58t-218 158.5t-122 242t-14 303.5q30 216 151.5 390.5t308.5 273t404 98.5q162 0 295 -58t218.5 -158.5t123 -242t14.5 -303.5q-30 -216 -152 -390.5t-309.5 -273t-404.5 -98.5zM870 123q125 0 239.5 47.5t200.5 128.5t144.5 191.5t75.5 234.5
q23 166 -29.5 303.5t-173.5 218t-287 80.5t-309 -81t-234 -218t-114 -303t28.5 -303t172 -218t286.5 -81zM932 1552l254 295h225l-334 -295h-145z" />
    <glyph glyph-name="Ocircumflex" unicode="&#xd4;" horiz-adv-x="1708" 
d="M848 -37q-162 0 -295 58t-218 158.5t-122 242t-14 303.5q30 216 151.5 390.5t308.5 273t404 98.5q162 0 295 -58t218.5 -158.5t123 -242t14.5 -303.5q-30 -216 -152 -390.5t-309.5 -273t-404.5 -98.5zM870 123q125 0 239.5 47.5t200.5 128.5t144.5 191.5t75.5 234.5
q23 166 -29.5 303.5t-173.5 218t-287 80.5t-309 -81t-234 -218t-114 -303t28.5 -303t172 -218t286.5 -81zM752 1552l268 295h186l189 -295h-166l-133 209l-189 -209h-155z" />
    <glyph glyph-name="Otilde" unicode="&#xd5;" horiz-adv-x="1708" 
d="M848 -37q-162 0 -295 58t-218 158.5t-122 242t-14 303.5q30 216 151.5 390.5t308.5 273t404 98.5q162 0 295 -58t218.5 -158.5t123 -242t14.5 -303.5q-30 -216 -152 -390.5t-309.5 -273t-404.5 -98.5zM870 123q125 0 239.5 47.5t200.5 128.5t144.5 191.5t75.5 234.5
q23 166 -29.5 303.5t-173.5 218t-287 80.5t-309 -81t-234 -218t-114 -303t28.5 -303t172 -218t286.5 -81zM831 1577h-98q28 88 89.5 150.5t146.5 62.5q28 0 61 -8.5t49.5 -15t55.5 -23.5q9 -4 25 -12t25.5 -12t24 -7.5t29.5 -3.5q74 0 111 90h98q-27 -91 -81.5 -152
t-137.5 -61q-59 0 -160 43q-5 2 -23 10t-27 11t-24.5 8.5t-29.5 7.5t-27 2q-36 0 -64 -26t-43 -64z" />
    <glyph glyph-name="Odieresis" unicode="&#xd6;" horiz-adv-x="1708" 
d="M848 -37q-162 0 -295 58t-218 158.5t-122 242t-14 303.5q30 216 151.5 390.5t308.5 273t404 98.5q162 0 295 -58t218.5 -158.5t123 -242t14.5 -303.5q-30 -216 -152 -390.5t-309.5 -273t-404.5 -98.5zM870 123q125 0 239.5 47.5t200.5 128.5t144.5 191.5t75.5 234.5
q23 166 -29.5 303.5t-173.5 218t-287 80.5t-309 -81t-234 -218t-114 -303t28.5 -303t172 -218t286.5 -81zM903 1798q45 0 73.5 -32.5t22.5 -77.5q-6 -46 -43.5 -78.5t-83.5 -32.5t-73 32.5t-21 78.5q6 45 43 77.5t82 32.5zM1309 1798q45 0 73.5 -32.5t22.5 -77.5
q-6 -46 -43.5 -78.5t-83.5 -32.5t-73 32.5t-21 78.5q6 45 43 77.5t82 32.5z" />
    <glyph glyph-name="multiply" unicode="&#xd7;" horiz-adv-x="1363" 
d="M444 1114l338 -395l451 395l86 -96l-453 -397l342 -394l-112 -100l-340 397l-451 -397l-86 96l453 398l-340 393z" />
    <glyph glyph-name="Oslash" unicode="&#xd8;" horiz-adv-x="1708" 
d="M1448 1126l-924 -872q134 -131 346 -131q125 0 239.5 47.5t200.5 128.5t144.5 191.5t75.5 234.5q31 239 -82 401zM457 336l921 870q-134 121 -338 121q-166 0 -309 -81t-234 -218t-114 -303q-35 -226 74 -389zM127 23l190 180q-162 210 -118 522q30 216 151.5 390.5
t308.5 273t404 98.5q267 0 448 -154l189 178l74 -77l-187 -177q81 -102 114.5 -238.5t12.5 -293.5q-30 -216 -152 -390.5t-309.5 -273t-404.5 -98.5q-280 0 -459 162l-192 -180z" />
    <glyph glyph-name="Ugrave" unicode="&#xd9;" horiz-adv-x="1441" 
d="M1473 1450l-127 -897q-14 -97 -44.5 -182.5t-82.5 -161t-122 -129.5t-168 -85.5t-214 -31.5t-205.5 31t-143 86t-86 129.5t-36 161.5t7.5 182l127 897h172l-123 -872q-8 -71 -8.5 -137t19.5 -124t54.5 -101t97 -68t146.5 -25t153.5 25.5t117.5 67.5t83.5 101.5t56 123.5
t30.5 137l122 872h173zM909 1847l172 -295h-145l-252 295h225z" />
    <glyph glyph-name="Uacute" unicode="&#xda;" horiz-adv-x="1441" 
d="M1473 1450l-127 -897q-14 -97 -44.5 -182.5t-82.5 -161t-122 -129.5t-168 -85.5t-214 -31.5t-205.5 31t-143 86t-86 129.5t-36 161.5t7.5 182l127 897h172l-123 -872q-8 -71 -8.5 -137t19.5 -124t54.5 -101t97 -68t146.5 -25t153.5 25.5t117.5 67.5t83.5 101.5t56 123.5
t30.5 137l122 872h173zM799 1552l254 295h225l-334 -295h-145z" />
    <glyph glyph-name="Ucircumflex" unicode="&#xdb;" horiz-adv-x="1441" 
d="M1473 1450l-127 -897q-14 -97 -44.5 -182.5t-82.5 -161t-122 -129.5t-168 -85.5t-214 -31.5t-205.5 31t-143 86t-86 129.5t-36 161.5t7.5 182l127 897h172l-123 -872q-8 -71 -8.5 -137t19.5 -124t54.5 -101t97 -68t146.5 -25t153.5 25.5t117.5 67.5t83.5 101.5t56 123.5
t30.5 137l122 872h173zM618 1552l269 295h186l189 -295h-166l-133 209l-189 -209h-156z" />
    <glyph glyph-name="Udieresis" unicode="&#xdc;" horiz-adv-x="1441" 
d="M1473 1450l-127 -897q-14 -97 -44.5 -182.5t-82.5 -161t-122 -129.5t-168 -85.5t-214 -31.5t-205.5 31t-143 86t-86 129.5t-36 161.5t7.5 182l127 897h172l-123 -872q-8 -71 -8.5 -137t19.5 -124t54.5 -101t97 -68t146.5 -25t153.5 25.5t117.5 67.5t83.5 101.5t56 123.5
t30.5 137l122 872h173zM770 1798q45 0 73.5 -32.5t22.5 -77.5q-6 -46 -43.5 -78.5t-83.5 -32.5t-73 32.5t-21 78.5q6 45 43 77.5t82 32.5zM1176 1798q45 0 73.5 -32.5t22.5 -77.5q-6 -46 -43.5 -78.5t-83.5 -32.5t-73 32.5t-21 78.5q6 45 43 77.5t82 32.5z" />
    <glyph glyph-name="Yacute" unicode="&#xdd;" horiz-adv-x="1216" 
d="M522 0l88 625l-424 825h220l315 -655l512 655h207l-658 -825l-88 -625h-172zM686 1552l254 295h225l-334 -295h-145z" />
    <glyph glyph-name="Thorn" unicode="&#xde;" horiz-adv-x="1214" 
d="M180 0l205 1450h172l-37 -256h258q83 0 153.5 -12t132.5 -41t102.5 -73.5t58.5 -113.5t6 -157q-13 -91 -53.5 -163t-94.5 -116t-122.5 -72.5t-132.5 -39.5t-130 -11h-290l-56 -395h-172zM498 1034l-68 -479h291q133 0 220.5 61t105.5 179q17 118 -54 178.5t-205 60.5
h-290z" />
    <glyph glyph-name="germandbls" unicode="&#xdf;" horiz-adv-x="1214" 
d="M152 0l155 1106q14 97 50.5 179t98 147.5t155 103t210.5 37.5q173 0 273.5 -98t76.5 -267q-17 -118 -87 -201.5t-183 -121.5l-2 -4q163 -17 238 -140t51 -295q-30 -212 -186.5 -341.5t-370.5 -129.5q-70 0 -123 19l20 145q44 -16 103 -16q153 0 259 92.5t128 245.5
q23 162 -64 255t-249 93h-48l19 135h45q112 0 192 66.5t97 179.5q15 108 -47 171.5t-170 63.5q-78 0 -138.5 -27t-98 -75t-59.5 -105t-32 -126l-154 -1092h-159z" />
    <glyph glyph-name="agrave" unicode="&#xe0;" horiz-adv-x="1062" 
d="M342 731l-86 105q82 73 187.5 110t213.5 37q209 0 292 -100t55 -305l-60 -412q-11 -99 -8 -166h-154q-4 41 11 143h-5q-62 -77 -148.5 -122.5t-190.5 -45.5q-153 0 -244 75.5t-72 209.5q9 66 38.5 118.5t68 87t95 59.5t107.5 38.5t118 21t115 9.5t109 2h62l4 29
q13 103 -41 157t-168 54q-170 0 -299 -105zM827 461h-159q-158 0 -253 -45.5t-108 -139.5q-11 -86 40.5 -125.5t148.5 -39.5q132 0 216.5 82t104.5 206zM670 1483l172 -295h-146l-252 295h226z" />
    <glyph glyph-name="aacute" unicode="&#xe1;" horiz-adv-x="1062" 
d="M342 731l-86 105q82 73 187.5 110t213.5 37q209 0 292 -100t55 -305l-60 -412q-11 -99 -8 -166h-154q-4 41 11 143h-5q-62 -77 -148.5 -122.5t-190.5 -45.5q-153 0 -244 75.5t-72 209.5q9 66 38.5 118.5t68 87t95 59.5t107.5 38.5t118 21t115 9.5t109 2h62l4 29
q13 103 -41 157t-168 54q-170 0 -299 -105zM827 461h-159q-158 0 -253 -45.5t-108 -139.5q-11 -86 40.5 -125.5t148.5 -39.5q132 0 216.5 82t104.5 206zM559 1188l254 295h225l-333 -295h-146z" />
    <glyph glyph-name="acircumflex" unicode="&#xe2;" horiz-adv-x="1062" 
d="M342 731l-86 105q82 73 187.5 110t213.5 37q209 0 292 -100t55 -305l-60 -412q-11 -99 -8 -166h-154q-4 41 11 143h-5q-62 -77 -148.5 -122.5t-190.5 -45.5q-153 0 -244 75.5t-72 209.5q9 66 38.5 118.5t68 87t95 59.5t107.5 38.5t118 21t115 9.5t109 2h62l4 29
q13 103 -41 157t-168 54q-170 0 -299 -105zM827 461h-159q-158 0 -253 -45.5t-108 -139.5q-11 -86 40.5 -125.5t148.5 -39.5q132 0 216.5 82t104.5 206zM379 1188l268 295h187l188 -295h-166l-133 209l-188 -209h-156z" />
    <glyph glyph-name="atilde" unicode="&#xe3;" horiz-adv-x="1062" 
d="M342 731l-86 105q82 73 187.5 110t213.5 37q209 0 292 -100t55 -305l-60 -412q-11 -99 -8 -166h-154q-4 41 11 143h-5q-62 -77 -148.5 -122.5t-190.5 -45.5q-153 0 -244 75.5t-72 209.5q9 66 38.5 118.5t68 87t95 59.5t107.5 38.5t118 21t115 9.5t109 2h62l4 29
q13 103 -41 157t-168 54q-170 0 -299 -105zM827 461h-159q-158 0 -253 -45.5t-108 -139.5q-11 -86 40.5 -125.5t148.5 -39.5q132 0 216.5 82t104.5 206zM459 1212h-99q28 88 89.5 150.5t146.5 62.5q28 0 61 -8.5t49.5 -15t55.5 -23.5q9 -4 25 -12t25.5 -12t24 -7.5
t29.5 -3.5q74 0 111 91h98q-27 -91 -81.5 -152t-137.5 -61q-59 0 -160 43q-5 2 -23 10t-27 11t-24.5 8.5t-29.5 7.5t-27 2q-35 0 -63 -26.5t-43 -64.5z" />
    <glyph glyph-name="adieresis" unicode="&#xe4;" horiz-adv-x="1062" 
d="M342 731l-86 105q82 73 187.5 110t213.5 37q209 0 292 -100t55 -305l-60 -412q-11 -99 -8 -166h-154q-4 41 11 143h-5q-62 -77 -148.5 -122.5t-190.5 -45.5q-153 0 -244 75.5t-72 209.5q9 66 38.5 118.5t68 87t95 59.5t107.5 38.5t118 21t115 9.5t109 2h62l4 29
q13 103 -41 157t-168 54q-170 0 -299 -105zM827 461h-159q-158 0 -253 -45.5t-108 -139.5q-11 -86 40.5 -125.5t148.5 -39.5q132 0 216.5 82t104.5 206zM530 1434q46 0 74.5 -33.5t22.5 -77.5q-6 -46 -43.5 -78.5t-83.5 -32.5t-73 32.5t-21 78.5q6 45 42.5 78t81.5 33z
M936 1434q45 0 73.5 -33t22.5 -78q-6 -46 -43.5 -78.5t-83.5 -32.5t-73 32.5t-21 78.5q6 45 43 78t82 33z" />
    <glyph glyph-name="aring" unicode="&#xe5;" horiz-adv-x="1062" 
d="M342 731l-86 105q82 73 187.5 110t213.5 37q209 0 292 -100t55 -305l-60 -412q-11 -99 -8 -166h-154q-4 41 11 143h-5q-62 -77 -148.5 -122.5t-190.5 -45.5q-153 0 -244 75.5t-72 209.5q9 66 38.5 118.5t68 87t95 59.5t107.5 38.5t118 21t115 9.5t109 2h62l4 29
q13 103 -41 157t-168 54q-170 0 -299 -105zM827 461h-159q-158 0 -253 -45.5t-108 -139.5q-11 -86 40.5 -125.5t148.5 -39.5q132 0 216.5 82t104.5 206zM520 1354q11 83 78 142.5t154 59.5t136 -59t38 -143q-12 -84 -78.5 -143.5t-153.5 -59.5t-136.5 59.5t-37.5 143.5z
M606 1354q-7 -49 24 -83t77 -34t86 33.5t47 83.5q6 48 -25 82t-76 34q-46 0 -86.5 -34t-46.5 -82z" />
    <glyph glyph-name="ae" unicode="&#xe6;" horiz-adv-x="1744" 
d="M1540 268l109 -94q-97 -106 -207 -152.5t-248 -46.5q-129 0 -215.5 61.5t-118.5 145.5q-133 -207 -414 -207q-51 0 -99 10t-91 32.5t-73 55t-44 82t-6 109.5q42 301 522 301h197l2 25q16 109 -36 177.5t-169 68.5q-85 0 -152 -23t-141 -72l-88 107q176 135 402 135
q107 0 189.5 -39t119.5 -123q176 162 362 162q206 0 312 -134t73 -368l-6 -51h-739q-18 -128 48.5 -217.5t184.5 -89.5q193 0 326 145zM834 430h-240q-47 0 -91 -7.5t-88 -24t-73 -49.5t-35 -79q-11 -75 49.5 -111t151.5 -36q124 0 213 77.5t108 202.5zM999 565h568
q12 123 -55 197t-197 74q-114 0 -205 -83t-111 -188z" />
    <glyph glyph-name="ccedilla" unicode="&#xe7;" horiz-adv-x="987" 
d="M1077 831l-143 -112q-78 117 -225 117q-155 0 -253.5 -101t-119.5 -256q-22 -151 53 -253.5t219 -102.5q158 0 262 119l103 -113q-146 -143 -346 -149l-95 -111q72 8 74 8q62 0 108 -36.5t36 -104.5q-8 -62 -52 -104t-98.5 -59t-114.5 -17q-113 0 -198 43l47 75
q66 -32 141 -32q30 0 57.5 6.5t51.5 26.5t28 51q5 39 -24 58t-70 19q-30 0 -84 -16l-35 39l136 156q-197 15 -298.5 152t-72.5 345q31 220 188 362t377 142q228 0 348 -152z" />
    <glyph glyph-name="egrave" unicode="&#xe8;" 
d="M924 268l108 -94q-97 -106 -207 -152.5t-247 -46.5q-110 0 -196.5 39.5t-138.5 108t-73 160t-6 196.5q31 222 189.5 363t371.5 141q206 0 312 -134t73 -368l-6 -51h-774q-9 -128 65.5 -217.5t202.5 -89.5q193 0 326 145zM348 565h602q12 123 -55 197t-197 74t-223.5 -74
t-126.5 -197zM707 1483l172 -295h-146l-252 295h226z" />
    <glyph glyph-name="eacute" unicode="&#xe9;" 
d="M924 268l108 -94q-97 -106 -207 -152.5t-247 -46.5q-110 0 -196.5 39.5t-138.5 108t-73 160t-6 196.5q31 222 189.5 363t371.5 141q206 0 312 -134t73 -368l-6 -51h-774q-9 -128 65.5 -217.5t202.5 -89.5q193 0 326 145zM348 565h602q12 123 -55 197t-197 74t-223.5 -74
t-126.5 -197zM596 1188l254 295h225l-334 -295h-145z" />
    <glyph glyph-name="ecircumflex" unicode="&#xea;" 
d="M924 268l108 -94q-97 -106 -207 -152.5t-247 -46.5q-110 0 -196.5 39.5t-138.5 108t-73 160t-6 196.5q31 222 189.5 363t371.5 141q206 0 312 -134t73 -368l-6 -51h-774q-9 -128 65.5 -217.5t202.5 -89.5q193 0 326 145zM348 565h602q12 123 -55 197t-197 74t-223.5 -74
t-126.5 -197zM416 1188l268 295h186l189 -295h-166l-133 209l-189 -209h-155z" />
    <glyph glyph-name="edieresis" unicode="&#xeb;" 
d="M924 268l108 -94q-97 -106 -207 -152.5t-247 -46.5q-110 0 -196.5 39.5t-138.5 108t-73 160t-6 196.5q31 222 189.5 363t371.5 141q206 0 312 -134t73 -368l-6 -51h-774q-9 -128 65.5 -217.5t202.5 -89.5q193 0 326 145zM348 565h602q12 123 -55 197t-197 74t-223.5 -74
t-126.5 -197zM567 1434q46 0 74.5 -33.5t22.5 -77.5q-6 -46 -43.5 -78.5t-83.5 -32.5t-73.5 32.5t-21.5 78.5q6 45 43 78t82 33zM973 1434q45 0 73.5 -33t22.5 -78q-6 -46 -43.5 -78.5t-83.5 -32.5t-73 32.5t-21 78.5q6 45 43 78t82 33z" />
    <glyph glyph-name="igrave" unicode="&#xec;" horiz-adv-x="491" 
d="M166 0l135 958h160l-135 -958h-160zM383 1483l172 -295h-145l-252 295h225z" />
    <glyph glyph-name="iacute" unicode="&#xed;" horiz-adv-x="491" 
d="M166 0l135 958h160l-135 -958h-160zM272 1188l254 295h226l-334 -295h-146z" />
    <glyph glyph-name="icircumflex" unicode="&#xee;" horiz-adv-x="491" 
d="M166 0l135 958h160l-135 -958h-160zM92 1188l268 295h187l188 -295h-166l-133 209l-188 -209h-156z" />
    <glyph glyph-name="idieresis" unicode="&#xef;" horiz-adv-x="491" 
d="M166 0l135 958h160l-135 -958h-160zM244 1434q45 0 73.5 -33t22.5 -78q-6 -46 -43.5 -78.5t-83.5 -32.5t-73 32.5t-21 78.5q6 45 43 78t82 33zM649 1434q45 0 73.5 -33t22.5 -78q-6 -46 -43.5 -78.5t-83.5 -32.5t-73 32.5t-21 78.5q6 45 43 78t82 33z" />
    <glyph glyph-name="eth" unicode="&#xf0;" horiz-adv-x="1216" 
d="M438 1249l232 109q-62 70 -158 155l152 82q102 -95 163 -163l236 110l82 -80l-244 -114q38 -41 69 -79t63.5 -82.5t57 -88.5t47.5 -93.5t37 -102t22.5 -109.5t8 -120t-9.5 -130q-37 -258 -189.5 -413t-402.5 -155q-223 0 -347.5 140.5t-92.5 363.5q31 223 194.5 363.5
t386.5 140.5q167 0 254 -100l2 4q-64 164 -253 389l-236 -111zM336 479q-22 -154 57 -255t232 -101t261 101t130 255q22 153 -58 255t-233 102q-152 0 -259.5 -101.5t-129.5 -255.5z" />
    <glyph glyph-name="ntilde" unicode="&#xf1;" 
d="M152 0l102 731q6 43 13 119t12 108h151q-4 -26 -9 -78.5t-9 -78.5h4q44 76 137.5 129t206.5 53q183 0 260 -105.5t51 -285.5l-84 -592h-160l80 575q18 123 -27 192t-155 69q-150 0 -237 -98.5t-111 -270.5l-66 -467h-159zM496 1212h-99q28 88 89.5 150.5t146.5 62.5
q28 0 61 -8.5t49.5 -15t55.5 -23.5q9 -4 25 -12t25.5 -12t24 -7.5t29.5 -3.5q74 0 111 91h98q-27 -91 -81.5 -152t-137.5 -61q-59 0 -160 43q-5 2 -23 10t-27 11t-24.5 8.5t-29.5 7.5t-27 2q-35 0 -63 -26.5t-43 -64.5z" />
    <glyph glyph-name="ograve" unicode="&#xf2;" horiz-adv-x="1216" 
d="M164 479q31 223 194.5 363.5t386.5 140.5q146 0 254 -63t158.5 -178.5t30.5 -262.5q-32 -223 -196.5 -363.5t-387.5 -140.5t-347.5 140.5t-92.5 363.5zM336 479q-22 -154 57 -255t232 -101t261 101t130 255q22 153 -58 255t-233 102q-152 0 -259.5 -101.5t-129.5 -255.5z
M745 1483l173 -295h-146l-252 295h225z" />
    <glyph glyph-name="oacute" unicode="&#xf3;" horiz-adv-x="1216" 
d="M164 479q31 223 194.5 363.5t386.5 140.5q146 0 254 -63t158.5 -178.5t30.5 -262.5q-32 -223 -196.5 -363.5t-387.5 -140.5t-347.5 140.5t-92.5 363.5zM336 479q-22 -154 57 -255t232 -101t261 101t130 255q22 153 -58 255t-233 102q-152 0 -259.5 -101.5t-129.5 -255.5z
M635 1188l254 295h225l-334 -295h-145z" />
    <glyph glyph-name="ocircumflex" unicode="&#xf4;" horiz-adv-x="1216" 
d="M164 479q31 223 194.5 363.5t386.5 140.5q146 0 254 -63t158.5 -178.5t30.5 -262.5q-32 -223 -196.5 -363.5t-387.5 -140.5t-347.5 140.5t-92.5 363.5zM336 479q-22 -154 57 -255t232 -101t261 101t130 255q22 153 -58 255t-233 102q-152 0 -259.5 -101.5t-129.5 -255.5z
M455 1188l268 295h186l189 -295h-166l-133 209l-189 -209h-155z" />
    <glyph glyph-name="otilde" unicode="&#xf5;" horiz-adv-x="1216" 
d="M164 479q31 223 194.5 363.5t386.5 140.5q146 0 254 -63t158.5 -178.5t30.5 -262.5q-32 -223 -196.5 -363.5t-387.5 -140.5t-347.5 140.5t-92.5 363.5zM336 479q-22 -154 57 -255t232 -101t261 101t130 255q22 153 -58 255t-233 102q-152 0 -259.5 -101.5t-129.5 -255.5z
M535 1212h-99q28 88 89.5 150.5t146.5 62.5q28 0 61 -8.5t49.5 -15t55.5 -23.5q9 -4 25 -12t25.5 -12t24 -7.5t29.5 -3.5q74 0 111 91h98q-27 -91 -81.5 -152t-137.5 -61q-59 0 -160 43q-5 2 -23 10t-27 11t-24.5 8.5t-29.5 7.5t-27 2q-35 0 -63 -26.5t-43 -64.5z" />
    <glyph glyph-name="odieresis" unicode="&#xf6;" horiz-adv-x="1216" 
d="M164 479q31 223 194.5 363.5t386.5 140.5q146 0 254 -63t158.5 -178.5t30.5 -262.5q-32 -223 -196.5 -363.5t-387.5 -140.5t-347.5 140.5t-92.5 363.5zM336 479q-22 -154 57 -255t232 -101t261 101t130 255q22 153 -58 255t-233 102q-152 0 -259.5 -101.5t-129.5 -255.5z
M606 1434q45 0 73.5 -33t22.5 -78q-6 -46 -43.5 -78.5t-83.5 -32.5t-73 32.5t-21 78.5q6 45 43 78t82 33zM1012 1434q45 0 73.5 -33t22.5 -78q-6 -46 -43.5 -78.5t-83.5 -32.5t-73 32.5t-21 78.5q6 45 43 78t82 33z" />
    <glyph glyph-name="divide" unicode="&#xf7;" horiz-adv-x="1363" 
d="M225 553l19 135h1069l-19 -135h-1069zM700 958q6 49 46 83t88 34q47 0 76.5 -35t23.5 -82q-7 -49 -46 -82.5t-87 -33.5t-78 34.5t-23 81.5zM604 283q7 49 46 82.5t87 33.5t78 -34.5t23 -81.5q-6 -49 -45.5 -83t-87.5 -34q-47 0 -77 35t-24 82z" />
    <glyph glyph-name="oslash" unicode="&#xf8;" horiz-adv-x="1216" 
d="M369 266l559 498q-75 72 -203 72q-152 0 -259.5 -101.5t-129.5 -255.5q-18 -125 33 -213zM983 692l-561 -497q75 -72 203 -72q153 0 261 101t130 255q18 125 -33 213zM76 4l160 143q-99 132 -72 332q31 223 194.5 363.5t386.5 140.5q192 0 312 -104l157 141l60 -66
l-156 -141q97 -136 70 -334q-32 -223 -196.5 -363.5t-387.5 -140.5q-191 0 -307 107l-160 -143z" />
    <glyph glyph-name="ugrave" unicode="&#xf9;" 
d="M1122 958l-102 -731q-7 -49 -14.5 -125.5t-10.5 -101.5h-151q4 26 9 79t9 79h-4q-46 -76 -140 -129.5t-206 -53.5q-182 0 -258.5 105.5t-50.5 286.5l84 591h159l-81 -575q-18 -123 27 -191.5t155 -68.5q150 0 238 99t112 270l66 466h159zM707 1483l172 -295h-146
l-252 295h226z" />
    <glyph glyph-name="uacute" unicode="&#xfa;" 
d="M1122 958l-102 -731q-7 -49 -14.5 -125.5t-10.5 -101.5h-151q4 26 9 79t9 79h-4q-46 -76 -140 -129.5t-206 -53.5q-182 0 -258.5 105.5t-50.5 286.5l84 591h159l-81 -575q-18 -123 27 -191.5t155 -68.5q150 0 238 99t112 270l66 466h159zM596 1188l254 295h225l-334 -295
h-145z" />
    <glyph glyph-name="ucircumflex" unicode="&#xfb;" 
d="M1122 958l-102 -731q-7 -49 -14.5 -125.5t-10.5 -101.5h-151q4 26 9 79t9 79h-4q-46 -76 -140 -129.5t-206 -53.5q-182 0 -258.5 105.5t-50.5 286.5l84 591h159l-81 -575q-18 -123 27 -191.5t155 -68.5q150 0 238 99t112 270l66 466h159zM416 1188l268 295h186l189 -295
h-166l-133 209l-189 -209h-155z" />
    <glyph glyph-name="udieresis" unicode="&#xfc;" 
d="M1122 958l-102 -731q-7 -49 -14.5 -125.5t-10.5 -101.5h-151q4 26 9 79t9 79h-4q-46 -76 -140 -129.5t-206 -53.5q-182 0 -258.5 105.5t-50.5 286.5l84 591h159l-81 -575q-18 -123 27 -191.5t155 -68.5q150 0 238 99t112 270l66 466h159zM567 1434q46 0 74.5 -33.5
t22.5 -77.5q-6 -46 -43.5 -78.5t-83.5 -32.5t-73.5 32.5t-21.5 78.5q6 45 43 78t82 33zM973 1434q45 0 73.5 -33t22.5 -78q-6 -46 -43.5 -78.5t-83.5 -32.5t-73 32.5t-21 78.5q6 45 43 78t82 33z" />
    <glyph glyph-name="yacute" unicode="&#xfd;" horiz-adv-x="987" 
d="M1102 958l-629 -1177q-37 -69 -66.5 -112.5t-71.5 -83.5t-96 -58.5t-124 -18.5q-89 0 -140 25l41 139q41 -16 109 -16q72 0 116.5 39.5t84.5 118.5l92 180l-262 964h186l190 -751h5l391 751h174zM520 1188l254 295h225l-333 -295h-146z" />
    <glyph glyph-name="thorn" unicode="&#xfe;" horiz-adv-x="1251" 
d="M78 -467l282 2015h160l-102 -729h4q164 164 366 164q224 0 345 -142t90 -362q-31 -214 -190 -359t-361 -145q-125 0 -215.5 55t-124.5 140h-4l-90 -637h-160zM371 479q-22 -154 56.5 -255t231.5 -101t261.5 101t130.5 255q22 153 -58 255t-233 102q-152 0 -259.5 -101.5
t-129.5 -255.5z" />
    <glyph glyph-name="ydieresis" unicode="&#xff;" horiz-adv-x="987" 
d="M1102 958l-629 -1177q-37 -69 -66.5 -112.5t-71.5 -83.5t-96 -58.5t-124 -18.5q-89 0 -140 25l41 139q41 -16 109 -16q72 0 116.5 39.5t84.5 118.5l92 180l-262 964h186l190 -751h5l391 751h174zM492 1434q45 0 73.5 -33t22.5 -78q-6 -46 -43.5 -78.5t-83.5 -32.5
t-73 32.5t-21 78.5q6 45 43 78t82 33zM897 1434q45 0 73.5 -33t22.5 -78q-6 -46 -43.5 -78.5t-83.5 -32.5t-73 32.5t-21 78.5q6 45 43 78t82 33z" />
    <glyph glyph-name="dotlessi" unicode="&#x131;" horiz-adv-x="491" 
d="M166 0l135 958h160l-135 -958h-160z" />
    <glyph glyph-name="Lslash" unicode="&#x141;" horiz-adv-x="1024" 
d="M180 0l64 453l-178 -138l22 162l178 137l119 836h172l-98 -688l495 381l-22 -162l-496 -381l-61 -440h663l-22 -160h-836z" />
    <glyph glyph-name="lslash" unicode="&#x142;" horiz-adv-x="491" 
d="M166 0l88 631l-188 -166l22 168l191 166l104 749h160l-82 -590l188 166l-22 -166l-191 -165l-110 -793h-160z" />
    <glyph glyph-name="OE" unicode="&#x152;" horiz-adv-x="1972" 
d="M1415 1290l-65 -454h577l-22 -160h-578l-72 -516h627l-22 -160h-942q-155 0 -282 39t-211.5 107.5t-138 160.5t-70.5 198t-1 220q20 144 90.5 273t182.5 230.5t276.5 161.5t357.5 60h930l-22 -160h-615zM1083 160l160 1130h-135q-126 0 -236 -32t-190 -86.5t-141 -127.5
t-95.5 -153.5t-46.5 -165.5t0 -165.5t52 -153.5t104.5 -127.5t165.5 -86.5t227 -32h135z" />
    <glyph glyph-name="oe" unicode="&#x153;" horiz-adv-x="1857" 
d="M1845 430h-739q-18 -128 48.5 -217.5t184.5 -89.5q193 0 326 145l109 -94q-97 -106 -207 -152.5t-248 -46.5q-109 0 -196 48.5t-132 148.5q-176 -197 -422 -197q-227 0 -343.5 138t-84.5 366q31 218 189 361t375 143q129 0 219.5 -46t152.5 -146q177 192 389 192
q206 0 312 -134t73 -368zM313 479q-10 -70 1 -133.5t43 -113.5t90 -79.5t135 -29.5q157 0 258.5 100.5t124.5 255.5q14 96 -10.5 176t-93 130.5t-171.5 50.5q-155 0 -255.5 -101.5t-121.5 -255.5zM1124 565h568q12 123 -55 197t-197 74q-114 0 -205 -83t-111 -188z" />
    <glyph glyph-name="Scaron" unicode="&#x160;" 
d="M1194 1317l-158 -123q-32 66 -97.5 99.5t-147.5 33.5q-80 0 -151.5 -24t-126.5 -81t-67 -139q-13 -99 44 -154.5t225 -111.5q82 -27 127.5 -45.5t106.5 -54.5t90 -76.5t45.5 -105.5t5.5 -148q-15 -105 -69.5 -187.5t-134 -133.5t-173.5 -77t-195 -26q-137 0 -250 49
t-168 152l166 121q33 -77 110.5 -119.5t174.5 -42.5q77 0 151 27.5t131.5 86.5t69.5 138q6 31 3 57.5t-9 47t-20.5 39t-32.5 32.5t-44 28t-55.5 26t-66.5 25.5t-78 27.5q-23 8 -35 12q-64 22 -110.5 44.5t-90 56t-68 73.5t-35.5 97t-1 128q11 81 48 150t90.5 118t121.5 83
t142 50.5t151 16.5q261 0 381 -170zM1149 1847l-266 -295h-187l-186 295h166l129 -209l188 209h156z" />
    <glyph glyph-name="scaron" unicode="&#x161;" horiz-adv-x="872" 
d="M68 154l139 98q44 -64 95.5 -96.5t131.5 -32.5q85 0 154 37.5t80 109.5q4 29 -5.5 52.5t-24.5 38t-44.5 27.5t-51.5 19t-59 15q-85 20 -128 34t-95 44.5t-69 79.5t-7 120q13 89 75.5 155t146.5 97t176 31q107 0 187.5 -43t115.5 -131l-148 -88q-52 115 -186 115
q-73 0 -136 -35.5t-71 -98.5q-4 -29 12 -51.5t50 -39t71 -27t90 -21.5q68 -14 116.5 -32.5t90.5 -50.5t59 -83t7 -121q-11 -78 -52.5 -138t-101.5 -94.5t-129 -51.5t-143 -17q-127 0 -209.5 40.5t-136.5 138.5zM965 1483l-267 -295h-186l-186 295h166l129 -209l188 209h156z
" />
    <glyph glyph-name="Ydieresis" unicode="&#x178;" horiz-adv-x="1216" 
d="M522 0l88 625l-424 825h220l315 -655l512 655h207l-658 -825l-88 -625h-172zM657 1798q46 0 74.5 -33t22.5 -77q-6 -46 -43.5 -78.5t-83.5 -32.5t-73.5 32.5t-21.5 78.5q6 45 43 77.5t82 32.5zM1063 1798q45 0 73.5 -32.5t22.5 -77.5q-6 -46 -43.5 -78.5t-83.5 -32.5
t-73 32.5t-21 78.5q6 45 43 77.5t82 32.5z" />
    <glyph glyph-name="Zcaron" unicode="&#x17d;" horiz-adv-x="1175" 
d="M59 0l23 154l997 1136h-825l22 160h1035l-23 -147l-997 -1143h848l-23 -160h-1057zM1167 1847l-266 -295h-186l-187 295h166l129 -209l189 209h155z" />
    <glyph glyph-name="zcaron" unicode="&#x17e;" horiz-adv-x="909" 
d="M61 0l19 125l661 698h-538l18 135h748l-19 -122l-661 -701h577l-18 -135h-787zM983 1483l-266 -295h-187l-186 295h166l129 -209l188 209h156z" />
    <glyph glyph-name="florin" unicode="&#x192;" 
d="M1006 870l-21 -135h-258l-231 -704q-52 -157 -139.5 -241.5t-241.5 -84.5q-100 0 -170 49l92 129q43 -30 102 -30q38 0 68.5 14.5t49.5 32.5t37.5 53t26 56.5t21.5 62.5l215 663h-221l20 135h248l74 226q23 67 43.5 116t54 101.5t72 85.5t95 54.5t124.5 21.5
q111 0 197 -58l-93 -127q-61 37 -112 37q-38 0 -70 -15t-52 -35t-39.5 -56t-28.5 -60t-23 -65l-74 -226h234z" />
    <glyph glyph-name="circumflex" unicode="&#x2c6;" horiz-adv-x="491" 
d="M86 1155l270 295h187l186 -295h-166l-131 209l-190 -209h-156z" />
    <glyph glyph-name="caron" unicode="&#x2c7;" horiz-adv-x="491" 
d="M770 1450l-268 -295h-187l-184 295h166l129 -209l188 209h156z" />
    <glyph glyph-name="uni02C9" unicode="&#x2c9;" horiz-adv-x="491" 
d="M719 1352l-19 -123h-565l19 123h565z" />
    <glyph glyph-name="breve" unicode="&#x2d8;" horiz-adv-x="491" 
d="M135 1438h101q3 -77 55 -118.5t133 -41.5q92 0 149.5 36.5t90.5 123.5h98q-33 -131 -127 -201t-227 -70q-132 0 -208.5 71t-64.5 200z" />
    <glyph glyph-name="dotaccent" unicode="&#x2d9;" horiz-adv-x="491" 
d="M442 1401q46 0 74.5 -33.5t22.5 -77.5q-8 -46 -44.5 -78t-82.5 -32q-47 0 -75 32t-20 78q6 45 43 78t82 33z" />
    <glyph glyph-name="ring" unicode="&#x2da;" horiz-adv-x="491" 
d="M229 1321q11 83 78 143t154 60t136 -59.5t38 -143.5q-12 -84 -78.5 -143.5t-153.5 -59.5t-136.5 59.5t-37.5 143.5zM315 1321q-7 -49 24 -83t77 -34t86 33.5t47 83.5q6 49 -24.5 83t-75.5 34q-46 0 -87 -34.5t-47 -82.5z" />
    <glyph glyph-name="ogonek" unicode="&#x2db;" horiz-adv-x="491" 
d="M332 -289l30 -84q-93 -80 -198 -80q-77 0 -126.5 49t-39.5 125q11 80 78 156t147 123h105q-64 -40 -122 -105t-67 -131q-6 -43 15 -69t69 -25q61 0 109 41z" />
    <glyph glyph-name="tilde" unicode="&#x2dc;" horiz-adv-x="491" 
d="M168 1180h-98q26 88 88 150.5t147 62.5q60 0 164 -47q9 -3 32.5 -14.5t38.5 -16t35 -4.5q74 0 111 90h98q-27 -91 -81.5 -152t-137.5 -61q-57 0 -162 43q-3 1 -18.5 8t-21.5 9.5t-20 7.5t-23.5 7.5t-22 4.5t-23.5 2q-36 0 -63.5 -26t-42.5 -64z" />
    <glyph glyph-name="hungarumlaut" unicode="&#x2dd;" horiz-adv-x="491" 
d="M561 1450l-307 -295h-137l248 295h196zM911 1450l-336 -295h-139l266 295h209z" />
    <glyph glyph-name="uni03A9" unicode="&#x3a9;" horiz-adv-x="1474" 
d="M424 127v6q-105 109 -160 274.5t-26 368.5q28 200 131 358.5t255 245t326 86.5q134 0 240 -56t168.5 -150t87.5 -217t6 -257q-30 -211 -135.5 -382.5t-237.5 -270.5v-6h310l-19 -127h-491l12 94q143 86 255.5 258.5t145.5 405.5q9 82 5.5 163.5t-31.5 156.5t-70.5 132.5
t-111.5 92t-154 34.5q-136 0 -252.5 -78.5t-190 -211t-96.5 -295.5q-21 -146 5 -283t81 -230t127 -145l-12 -94h-492l19 127h305z" />
    <glyph glyph-name="uni03BC" unicode="&#x3bc;" 
d="M1122 958l-102 -731q-7 -49 -14.5 -125.5t-10.5 -101.5h-151q4 26 9 79t9 79h-4q-46 -76 -140 -129.5t-206 -53.5q-117 0 -197 52l-69 -494h-160l201 1425h159l-81 -575q-18 -123 27 -191.5t155 -68.5q150 0 238 99t112 270l66 466h159z" />
    <glyph glyph-name="pi" unicode="&#x3c0;" horiz-adv-x="1169" 
d="M1247 942h-164l-90 -639q-27 -184 -14 -303h-150q-26 65 7 291l92 651h-371q-42 -223 -127 -513.5t-156 -428.5h-151q79 161 161 442t119 500q-155 0 -231 -27l-10 105q98 55 303 55h815z" />
    <glyph glyph-name="endash" unicode="&#x2013;" horiz-adv-x="1024" 
d="M1104 565l-21 -147h-1024l21 147h1024z" />
    <glyph glyph-name="emdash" unicode="&#x2014;" horiz-adv-x="2048" 
d="M59 418l21 147h2048l-21 -147h-2048z" />
    <glyph glyph-name="quoteleft" unicode="&#x2018;" horiz-adv-x="569" 
d="M258 958l238 492h155l-207 -492h-186z" />
    <glyph glyph-name="quoteright" unicode="&#x2019;" horiz-adv-x="569" 
d="M651 1450l-237 -492h-156l207 492h186z" />
    <glyph glyph-name="quotesinglbase" unicode="&#x201a;" horiz-adv-x="569" 
d="M475 209l-235 -492h-156l205 492h186z" />
    <glyph glyph-name="quotedblleft" unicode="&#x201c;" horiz-adv-x="1062" 
d="M313 958l238 492h156l-207 -492h-187zM696 958l238 492h156l-207 -492h-187z" />
    <glyph glyph-name="quotedblright" unicode="&#x201d;" horiz-adv-x="1062" 
d="M707 1450l-238 -492h-156l207 492h187zM1090 1450l-238 -492h-156l207 492h187z" />
    <glyph glyph-name="quotedblbase" unicode="&#x201e;" horiz-adv-x="1062" 
d="M530 209l-235 -492h-156l205 492h186zM913 209l-235 -492h-156l205 492h186z" />
    <glyph glyph-name="dagger" unicode="&#x2020;" 
d="M854 1450l-59 -416h417l-18 -135h-418l-164 -1157h-159l163 1157h-417l18 135h418l59 416h160z" />
    <glyph glyph-name="daggerdbl" unicode="&#x2021;" 
d="M854 1450l-55 -393h405l-20 -135h-406l-90 -652h406l-21 -135h-405l-56 -393h-159l55 393h-406l21 135h405l90 652h-405l20 135h406l55 393h160z" />
    <glyph glyph-name="bullet" unicode="&#x2022;" horiz-adv-x="1024" 
d="M252 725q22 151 142.5 256.5t271.5 105.5t242 -105.5t69 -256.5t-142.5 -257t-271.5 -106t-242 106t-69 257z" />
    <glyph glyph-name="ellipsis" unicode="&#x2026;" horiz-adv-x="2048" 
d="M375 233q51 0 81.5 -35.5t24.5 -86.5q-7 -50 -50 -86.5t-91 -36.5t-79.5 36.5t-24.5 86.5q6 51 47 86.5t92 35.5zM1057 233q51 0 81.5 -35.5t24.5 -86.5q-7 -50 -50 -86.5t-91 -36.5t-79.5 36.5t-24.5 86.5q6 51 47 86.5t92 35.5zM1739 233q51 0 81.5 -35.5t24.5 -86.5
q-7 -50 -50 -86.5t-91 -36.5t-80 36.5t-25 86.5q6 51 47.5 86.5t92.5 35.5z" />
    <glyph glyph-name="perthousand" unicode="&#x2030;" horiz-adv-x="2084" 
d="M709 297q19 131 127.5 226t238.5 95q131 0 213.5 -95.5t63.5 -225.5q-19 -134 -126.5 -228t-240.5 -94t-214 94t-62 228zM844 297q-9 -74 40 -130t122 -56q74 0 138 56.5t73 129.5q10 73 -38 129.5t-122 56.5t-138.5 -56.5t-74.5 -129.5zM1446 297q19 131 127.5 226
t238.5 95q131 0 213.5 -95.5t63.5 -225.5q-19 -134 -126.5 -228t-240.5 -94t-214 94t-62 228zM1581 295q-10 -73 38 -129.5t122 -56.5t138.5 56.5t74.5 129.5t-38 129.5t-122 56.5t-138.5 -56.5t-74.5 -129.5zM199 1153q19 131 127.5 226.5t238.5 95.5q131 0 213.5 -96
t63.5 -226q-19 -134 -126.5 -228t-240.5 -94t-214 94t-62 228zM334 1153q-10 -73 38 -129.5t122 -56.5t138.5 56.5t74.5 129.5t-38 129.5t-122 56.5t-138.5 -56.5t-74.5 -129.5zM166 0l1122 1516l105 -66l-1123 -1516z" />
    <glyph glyph-name="guilsinglleft" unicode="&#x2039;" horiz-adv-x="643" 
d="M645 856l-291 -364l189 -365l-123 -74l-232 439l355 438z" />
    <glyph glyph-name="guilsinglright" unicode="&#x203a;" horiz-adv-x="643" 
d="M137 127l291 365l-188 364l122 74l232 -438l-354 -439z" />
    <glyph glyph-name="fraction" unicode="&#x2044;" horiz-adv-x="342" 
d="M-340 0l1122 1516l105 -66l-1123 -1516z" />
    <glyph glyph-name="Euro" unicode="&#x20ac;" 
d="M1272 1401l-64 -144q-89 76 -252 76q-138 0 -251 -90.5t-181 -261.5h568l-48 -121h-559q-22 -91 -32 -158q-2 -21 -6.5 -58.5t-6.5 -53.5h496l-49 -117h-449q13 -360 297 -360q155 0 275 127l82 -93q-64 -75 -169.5 -123.5t-220.5 -48.5q-207 0 -320 127t-120 371h-149
l53 117h98q6 55 15 119q8 74 28 151h-135l55 121h119q89 237 257.5 365.5t375.5 128.5q84 0 167 -22t126 -52z" />
    <glyph glyph-name="afii61289" unicode="&#x2113;" horiz-adv-x="993" 
d="M915 309l66 -65q-173 -258 -418 -258q-86 0 -147 30.5t-93 84.5t-43.5 121t-3.5 147l5 26q-18 -12 -62 -45.5t-69 -50.5l-35 90q142 106 182 141l80 568q19 135 60 234.5t95.5 154.5t111.5 80.5t118 25.5q125 0 176.5 -94t30.5 -242q-26 -185 -161.5 -370.5
t-367.5 -386.5l-8 -70q-22 -162 29.5 -241.5t148.5 -79.5q88 0 169 59.5t136 140.5zM526 1108l-63 -455q170 164 274.5 312t124.5 290q30 222 -117 222q-67 0 -129.5 -89t-89.5 -280z" />
    <glyph glyph-name="trademark" unicode="&#x2122;" horiz-adv-x="2027" 
d="M483 606l99 709h-267l21 135h668l-21 -135h-266l-99 -709h-135zM1055 606l119 844h215l161 -641l342 641h209l-119 -844h-135l99 709h-4l-377 -709h-92l-181 709h-4l-98 -709h-135z" />
    <glyph glyph-name="Omega" unicode="&#x2126;" horiz-adv-x="1474" 
d="M424 127v6q-105 109 -160 274.5t-26 368.5q28 200 131 358.5t255 245t326 86.5q134 0 240 -56t168.5 -150t87.5 -217t6 -257q-30 -211 -135.5 -382.5t-237.5 -270.5v-6h310l-19 -127h-491l12 94q143 86 255.5 258.5t145.5 405.5q9 82 5.5 163.5t-31.5 156.5t-70.5 132.5
t-111.5 92t-154 34.5q-136 0 -252.5 -78.5t-190 -211t-96.5 -295.5q-21 -146 5 -283t81 -230t127 -145l-12 -94h-492l19 127h305z" />
    <glyph glyph-name="estimated" unicode="&#x212e;" horiz-adv-x="2015" 
d="M1944 705h-1350q-10 0 -10 -11v-407q0 -26 18 -47q101 -104 232 -163t278 -59q157 0 296.5 66t240.5 182h118q-112 -133 -285.5 -211t-371.5 -78q-169 0 -323 59t-265 159t-177 239t-66 291q0 153 66 291.5t177 239t265 160t323 59.5q170 0 324.5 -59.5t266 -160
t177.5 -239t66 -291.5v-20zM1636 758v409q0 29 -18 50q-101 100 -231.5 156.5t-274.5 56.5q-145 0 -276 -58.5t-232 -161.5q-20 -20 -20 -51v-401q0 -4 3 -9.5t7 -5.5h1034q8 0 8 15z" />
    <glyph glyph-name="partialdiff" unicode="&#x2202;" horiz-adv-x="1120" 
d="M406 1393l-39 112q162 117 358 117q102 0 186.5 -47.5t146 -144t82 -243.5t-4.5 -347q-36 -248 -122 -438.5t-224.5 -304t-309.5 -113.5q-77 0 -139 27t-100.5 73t-63 107t-27.5 129.5t5 140.5q33 235 181.5 381.5t328.5 146.5q66 0 123 -21t93.5 -54t58.5 -63.5
t32 -57.5h2q7 22 18 90q20 137 4 249.5t-57 192.5t-105.5 124t-142.5 44q-150 0 -284 -100zM510 113h2q94 0 181 76t147 192.5t94 257.5q-6 36 -26 73.5t-52 72.5t-81.5 57t-106.5 22q-126 0 -232 -118t-129 -283q-22 -154 33.5 -252t169.5 -98z" />
    <glyph glyph-name="Delta" unicode="&#x2206;" horiz-adv-x="1327" 
d="M63 0l15 106l708 1377h179l311 -1377l-14 -106h-1199zM240 127h874l-186 791q-9 55 -42 195.5t-40 189.5h-8q-16 -44 -84 -178.5t-86 -174.5z" />
    <glyph glyph-name="product" unicode="&#x220f;" horiz-adv-x="1634" 
d="M1581 1303h-223v-1502h-154v1502h-571v-1502h-152v1502h-225v141h1325v-141z" />
    <glyph glyph-name="summation" unicode="&#x2211;" horiz-adv-x="1335" 
d="M1292 -199h-1042v103l551 717l-527 714v109h986v-135h-771v-6l490 -660l-530 -688v-6h843v-148z" />
    <glyph glyph-name="minus" unicode="&#x2212;" horiz-adv-x="1363" 
d="M244 688h1069l-19 -135h-1069z" />
    <glyph glyph-name="uni2215" unicode="&#x2215;" horiz-adv-x="342" 
d="M-340 0l1122 1516l105 -66l-1123 -1516z" />
    <glyph glyph-name="uni2219" unicode="&#x2219;" horiz-adv-x="569" 
d="M391 756q51 0 81.5 -36t23.5 -87q-6 -50 -49 -86.5t-91 -36.5t-80 36.5t-26 86.5q8 51 49 87t92 36z" />
    <glyph glyph-name="radical" unicode="&#x221a;" horiz-adv-x="1378" 
d="M1380 1716l-454 -2025h-138l-327 958l-152 -57l-33 96l283 109l260 -768q28 -115 35 -150h4q9 57 27 150l381 1687h114z" />
    <glyph glyph-name="infinity" unicode="&#x221e;" horiz-adv-x="1724" 
d="M1620 600v-2q0 -144 -92.5 -235t-220.5 -91q-93 0 -179 57.5t-198 186.5q-50 -58 -85 -93t-85.5 -74.5t-104.5 -58t-114 -18.5q-126 0 -217 92.5t-91 227.5q0 141 92 233.5t230 92.5q56 0 108.5 -19t101.5 -57t86.5 -75.5t86.5 -94.5q33 38 45.5 52t45 47.5t51 48
t50.5 38t58.5 33.5t61.5 18.5t71 8.5q133 0 216 -88.5t83 -229.5zM555 369h2q27 0 53.5 6.5t53.5 22.5t45.5 28t47 39.5t40 39t41.5 44.5t36 39q-28 36 -39.5 49.5t-39 45.5t-44 46t-44.5 36t-50.5 32t-52.5 18t-61 8q-95 0 -151 -67.5t-54 -165.5q0 -94 60.5 -157.5
t156.5 -63.5zM1311 823h-2q-33 0 -67.5 -12t-61 -29t-57 -44.5t-50 -48t-46 -50t-38.5 -41.5q112 -127 180 -178t146 -51q92 0 147.5 67.5t55.5 155.5q0 107 -58 169t-149 62z" />
    <glyph glyph-name="integral" unicode="&#x222b;" horiz-adv-x="942" 
d="M909 1737l-26 -109q-28 21 -76 21q-66 0 -102 -50q-39 -45 -54.5 -130.5t-15.5 -237.5q0 -161 13.5 -515t13.5 -523q0 -285 -87 -418q-33 -54 -87 -81.5t-117 -27.5q-73 0 -135 35l26 113q56 -25 94 -25q60 0 95 47q69 89 69 357q0 171 -13 530t-13 522q0 173 24.5 274.5
t83.5 163.5q76 82 195 82q58 0 112 -28z" />
    <glyph glyph-name="approxequal" unicode="&#x2248;" horiz-adv-x="1280" 
d="M1120 889l64 -55q-98 -195 -264 -195q-58 0 -106 19t-134 67q-59 35 -102.5 52.5t-90.5 17.5q-64 0 -110 -40t-92 -114l-66 55q46 92 120.5 144.5t162.5 52.5q35 0 72.5 -10.5t56.5 -19.5t57 -30.5t43 -23.5q6 -3 26 -14.5t26 -14.5t22.5 -11.5t23.5 -11t21.5 -8
t24.5 -7.5t23.5 -3.5t27.5 -1.5q60 0 104 37t90 115zM1120 539l64 -56q-98 -194 -264 -194q-58 0 -106 19t-134 67q-117 69 -191 69q-66 0 -111.5 -39.5t-92.5 -113.5l-66 55q46 92 120.5 144.5t162.5 52.5q28 0 54.5 -4.5t55.5 -17t41.5 -18.5t44 -24.5t33.5 -19.5
q7 -4 31.5 -17.5t33 -18t29 -14t33 -12.5t31.5 -6.5t37 -3.5q60 0 104 37t90 115z" />
    <glyph glyph-name="notequal" unicode="&#x2260;" horiz-adv-x="1304" 
d="M971 1040l-92 -202h321v-101h-360l-140 -301h500v-100h-541l-110 -242l-80 37l94 205h-307v100h350l135 301h-485v101h526l109 237z" />
    <glyph glyph-name="lessequal" unicode="&#x2264;" horiz-adv-x="1327" 
d="M1217 201l-926 463v106l926 463v-121l-820 -391v-4l820 -395v-121zM1223 12h-944v105h944v-105z" />
    <glyph glyph-name="greaterequal" unicode="&#x2265;" horiz-adv-x="1327" 
d="M293 1233l926 -463v-106l-926 -463v121l817 393v4l-817 393v121zM1221 12h-940v105h940v-105z" />
    <glyph glyph-name="lozenge" unicode="&#x25ca;" horiz-adv-x="1380" 
d="M1270 721l-416 -815h-125l-410 815l414 815h127zM1126 717l-290 579q-21 43 -39 109h-6q-10 -43 -39 -109l-291 -571l295 -584q31 -80 35 -104h8q13 57 37 104z" />
    </font>
</defs>
</svg>
